Loading...
Done
Home > Music > +Jazz
Posted By : basa005 | Date : 18 Oct 2021 14:52:02 | Comments : 1 |

Sun Ra & His Intergalactic Research Arkestra - Black Myth - Out in Space (1998)
EAC RIP | APE + CUE + LOG | COVER + BOOK | RAR FILES (3% recovery) | 2CD 722 Mb
Jazz | motor music 567 656-2




Tracklist:
cd one - black myth
1. black forest myth (sun ra)
2. friendly galaxy no. 2 (sun ra)
3. journey through the outer darkness (sun ra)
4. strange worlds - black myth - it's after the end of the world (sun ra)
5. we'll wait for you (sun ra)

recorded live at the donaueschingen musik festival, stadthalle, october 17, 2021

disc two - out in space
1. out in space (sun ra)
2. discipline series (sun ra)
3. walkin' on the moon... (sun ra)
4. outer space where i come from (recitation) (sun ra)
5. watusa (sun ra, andre pitts , terri vanne sherrill)
6. myth versus reality (sun ra)
7. theme of the stargazers (sun ra)
8. space chants medley (second stop is jupiter - why go to the moon - neptun - mercury - venus - mars - jupiter - saturn - uranus - pluto) (sun ra)
9. we travel the spaceways (sun ra)

recorded live at the berlin jazz festival, kongresshalle, november 7, 2021

parts of this album were previously released on "black forest myth" (1971) and "it's after the end of the world" (1971)

sun ra: clavinet, synthesizer, keyboards, organ, voice
john gilmore: tenor saxophone, percussion, vocals
marshall allen: alto saxophone, flute, piccolo flute, oboe, percussion
pat (laurdine) patrick: baritone, alto & tenor saxophone, clarinet, bass clarinet, flute, percussion
danny davis: alto saxophone, flute, clarinet
danny thompson: baritone & alto saxophone, bassoon, flute
eloe omoe (leroy taylor): oboe, bass clarinet, bassoon
robert cummings: bass clarinet
james jackson: oboe, flute, percussion, drums
absholom ben shlomo (virgil c.pumphrey): alto saxophone, clarinet, flute, percussion
kwame hadi (lamont f.mcclamb): trumpet
akh tal ebah (douglas e.williams): trumpet, mellophone
robert northern: french horn
al batin nur (augustus browning): english horn
alan silva: violin, viola, cello, bass
alejandro blake fearon (alex blake): bass
lex humphries: drums, percussion
rashid salim IV (william brister): drums, congas
nimrod hunt (carl s.malone): percussion, handdrums, percussion
june tyson: vocals, dance
ife tayo (gloristeena knight): percussion, dance
roger aralamon hazoumé: dance, african percussion, balafone, fire eating
math samba: dance, african percussion
richard wilkinson: stereo light-sound coordination

produced by fabian kerner
original sessions produced by joachim ernst berendt (tracks: 1-1, 1-2, 1-4, 2-5, 2-6)

EAC LOG CD1

Exact Audio Copy V0.99 prebeta 4 from 23. January 2008

Estrazione File Di Log EAC Del 15. Ottobre 2010, 16:54

Sun Ra & His Intergalactic Research Arkestra / Black Myth [cd1]

Unità Predefinita: ATAPI DVD A DH16A1L Adapter: 1 ID: 0

Modalità Di Lettura: : Sicura
Utilizza Lettura Accurata : Sì
Disattiva Cache Audio : No
Rileva Errori Lettura C2 : Sì

Correzione Offset Di Lettura: : 6
Sovrascrivi Anche Nel Lead-In E Lead-Out : No
Riempi Sample Offset Mancanti Con Silenzio : Sì
Rimuovi Blocchi Di Silenzio Ad Inizio E Fine Traccia : No
Usa I Sample Nulli Nel Calcolo CRC : Sì
Interfaccia Usata : Interfaccia Nativa Win32 Per Windows NT & 2000

Formato Di Destinazione Scelto: : Routine Interne WAV
Formato Sample : 44.100 Hz; 16 Bit; Stereo


TOC Del CD Estratto

Traccia | Inizio | Lunghezza | Inizio Settore | Fine Settore
----------------------------------------------------------------
1 | 0:00.32 | 3:58.30 | 32 | 17911
2 | 3:58.62 | 5:25.18 | 17912 | 42304
3 | 9:24.05 | 12:58.37 | 42305 | 100691
4 | 22:22.42 | 15:18.55 | 100692 | 169596
5 | 37:41.22 | 10:13.05 | 169597 | 215576


Stato Intervallo Ed Errori

Intervallo Selezionato

Nome File C:\avaxhome\Sun Ra & His Intergalactic Research Arkestra - Black Myth [cd1].wav

Livello Di Picco 99.9 %
Qualità Intervallo 100.0 %
Copia CRC 5CAD960E
Copia Corretta

Non Sono Stati Riscontrati Errori


Sommario Accuraterip

Traccia 1 Estratta Accuratamente (Confidence 5) [17097929]
Traccia 2 Estratta Accuratamente (Confidence 5) [626B0764]
Traccia 3 Estratta Accuratamente (Confidence 5) [61881956]
Traccia 4 Estratta Accuratamente (Confidence 5) [6092C7CE]
Traccia 5 Estratta Accuratamente (Confidence 5) [4C2D29CA]

Tutte Le Tracce Sono State Estratte Accuratamente

Fine Del Resoconto Di Stato


EAC LOG CD2

Exact Audio Copy V0.99 prebeta 4 from 23. January 2008

Estrazione File Di Log EAC Del 15. Ottobre 2010, 17:18

Sun Ra and his Intergalactic Research Arkestra / Out In Space [cd2]

Unità Predefinita: ATAPI DVD A DH16A1L Adapter: 1 ID: 0

Modalità Di Lettura: : Sicura
Utilizza Lettura Accurata : Sì
Disattiva Cache Audio : No
Rileva Errori Lettura C2 : Sì

Correzione Offset Di Lettura: : 6
Sovrascrivi Anche Nel Lead-In E Lead-Out : No
Riempi Sample Offset Mancanti Con Silenzio : Sì
Rimuovi Blocchi Di Silenzio Ad Inizio E Fine Traccia : No
Usa I Sample Nulli Nel Calcolo CRC : Sì
Interfaccia Usata : Interfaccia Nativa Win32 Per Windows NT & 2000

Formato Di Destinazione Scelto: : Routine Interne WAV
Formato Sample : 44.100 Hz; 16 Bit; Stereo


TOC Del CD Estratto

Traccia | Inizio | Lunghezza | Inizio Settore | Fine Settore
----------------------------------------------------------------
1 | 0:00.00 | 37:45.30 | 0 | 169904
2 | 37:45.30 | 3:28.35 | 169905 | 185539
3 | 41:13.65 | 9:02.33 | 185540 | 226222
4 | 50:16.23 | 0:23.05 | 226223 | 227952
5 | 50:39.28 | 2:44.42 | 227953 | 240294
6 | 53:23.70 | 14:59.40 | 240295 | 307759
7 | 68:23.35 | 0:42.10 | 307760 | 310919
8 | 69:05.45 | 5:42.45 | 310920 | 336614
9 | 74:48.15 | 3:02.53 | 336615 | 350317


Stato Intervallo Ed Errori

Intervallo Selezionato

Nome File C:\avaxhome\Sun Ra and his Intergalactic Research Arkestra - Out In Space [cd2].wav

Livello Di Picco 99.9 %
Qualità Intervallo 100.0 %
Copia CRC BEDF0CEA
Copia Corretta

Non Sono Stati Riscontrati Errori


Sommario Accuraterip

Traccia 1 Non Presente Nel Database
Traccia 2 Non Presente Nel Database
Traccia 3 Non Presente Nel Database
Traccia 4 Non Presente Nel Database
Traccia 5 Non Presente Nel Database
Traccia 6 Non Presente Nel Database
Traccia 7 Non Presente Nel Database
Traccia 8 Non Presente Nel Database
Traccia 9 Non Presente Nel Database

Nessuna Delle Tracce è Presente Nel Database AccurateRip

Fine Del Resoconto Di Stato


fileserve download:
CD 1
CD 2

cover
ADVERTISING » High Speed Download « ADVERTISING




Posted By: đorđe Date: 19 Oct 2021 09:52:10
Sun ra will always be the best!
Recent searches: