Loading...
Done
Home > Music > +Jazz
Joe Henderson - Double Rainbow (1995)
Posted By : vishtaspa | Date : 25 Feb 2022 00:23:57 | Comments : 3

Joe Henderson - Double Rainbow (1995)
[The music of Antonio Carlos Jobim]
EAC: APE + CUE + LOG | Covers | 296 MB
( + MP3 | 320CBR | Stereo | 148 MB )
Post-Bop, Brazilian Jazz | 62:41 min

The third of tenor-saxophonist Joe Henderson's tribute CDs on Verve was originally supposed to be a collaboration with the great bossa nova composer Antonio Carlos Jobim.

"Joe Henderson - Double Rainbow" - Album Review:

Joe Henderson has been one of the great tenor stylists since he burst on the scene in the 1960s as a sideman and leader on several historic "Blue Note" recordings. Henderson found a space on the horn to accomodate both the innovations of John Coltrane and Sonny Rollins, plus a wide range of personal timbral devices, expressive manipulations of the embouchure that allowed him to produce breathy, flute-like ornaments and a unique vocal cry. Henderson's work with producer Richard Seidel has emphasized the tenor saxophonist's gifts as an interpreter of other people's music. His critically acclaimed recordings of music associated with Billy Strayhorn ("LUSH LIFE") and Miles Davis ("SO FAR, SO NEAR") have been jazz best-sellers.

Now with "DOUBLE RAINBOW", Henderson pays tribute to the rich designs of the late Antonio Carlos Jobim in the form of two suites: one with a Brazilian styled band (evoking shades of the Getz/Gilberto collaborations), the other with an all-star American aggregation including bassist Christian McBride, pianist Herbie Hancock and drummer Jack DeJohnette. From Henderson's first notes over the bouncy groove of "Felicidade," his lyrical gifts are well-served by pianist Elaine Elias and guitarist Oscar Castro-Neves. And on the lovely melodies of "Dreamer" and "Once I Loved" Henderson patiently shapes his phrases with a real regard for the lyrics.

The powerhouse American rhythm section helps Henderson to stretch out rhythmically and harmonically. Hancock is in remarkable form, even by his own lofty standards, helping Henderson to reorchestrate each Jobim standard without losing the shape of the tune. "Happy Madness" features them in an extraordinary duet, while "Modinha" opens with a solo sax feature of epic scope and control, before McBride comes strolling through with his indomitable beat. DOUBLE RAINBOW is choice from start to finish.
...


Tracklist:

Suite I:

01. Felicidade (4:44)
02. Dreamer (5:23)
03. Boto (6:34)
04. Ligia (4:31)
05. Once I Loved (5:22)


Suite II:

06. Triste (5:28)
07. Photograph (5:02)
08. Portrait in Black and White (5:17)
09. No More Blues (6:39)
10. Happy Madness (3:12)
11. Passarim (5:39)
12. Modinha (4:32)

Total (62:41)
...

Personnel:

Joe Henderson - Tenor & Alto Sax

Herbie Hancock - Piano (06,07,08,10,11)
Cristian McBride - Bass (06-09,11,12)
Jack DeJohnette - Drums (06,07,09,11)

Oscar Castro-Neves - Guitars (01,02,05)
Nico Assumpcao - Bass (01-04)
Eliane Elias - Piano (01-04)
Paulo Braga - Drums (01-04)
...

Recording sessions:

At Clinton Recording Studios, NY, on November 5 & 6, 1994
At Oceanway Recording, Los Angeles, on September 19 & 20, 1994.
...

Audio CD Released: 1995
Label: Verve / PolyGram
Cat.No.: 527 222 2

...

DLiNKS:

>> here <<

pass: nigrozinn
...

Thanx 2 alevseko!
...


EAC LOG:
Exact Audio Copy V0.99 prebeta 5 from 4. May 2009

EAC extraction logfile from 27. November 2009, 18:15

Joe Henderson / Double Rainbow

Used drive : PLEXTOR DVDR PX-820SA Adapter: 2 ID: 3

Read mode : Secure
Utilize accurate stream : Yes
Defeat audio cache : Yes
Make use of C2 pointers : No

Read offset correction : 48
Overread into Lead-In and Lead-Out : No
Fill up missing offset samples with silence : Yes
Delete leading and trailing silent blocks : No
Null samples used in CRC calculations : Yes
Used interface : Native Win32 interface for Win NT & 2000

Used output format : Internal WAV Routines
Sample format : 44.100 Hz; 16 Bit; Stereo


TOC of the extracted CD

Track | Start | Length | Start sector | End sector
---------------------------------------------------------
1 | 0:00.32 | 4:45.00 | 32 | 21406
2 | 4:45.32 | 5:24.68 | 21407 | 45774
3 | 10:10.25 | 6:35.65 | 45775 | 75464
4 | 16:46.15 | 4:31.70 | 75465 | 95859
5 | 21:18.10 | 5:25.32 | 95860 | 120266
6 | 26:43.42 | 5:29.28 | 120267 | 144969
7 | 32:12.70 | 5:02.47 | 144970 | 167666
8 | 37:15.42 | 5:18.58 | 167667 | 191574
9 | 42:34.25 | 6:41.15 | 191575 | 221664
10 | 49:15.40 | 3:13.17 | 221665 | 236156
11 | 52:28.57 | 5:40.28 | 236157 | 261684
12 | 58:09.10 | 4:32.35 | 261685 | 282119


Range status and errors

Selected range

Filename G:\Zagruzka\Adjunct\Joe Henderson-double rainbow\Joe Henderson - Double Rainbow.wav

Peak level 100.0 %
Range quality 99.9 %
Copy CRC 79BB3556
Copy OK

No errors occurred

All tracks accurately ripped

End of status report


AccuripLog:
[Verification date: 02.12.2021 22:00:22]
[Disc ID: 001c73c5-010947af-9e0eb10c]
Pregap length 00:00:32.
Track [ CRC ] Status
01 [1736bc79] (23/23) Accurately ripped as in pressing(s) #1
02 [f293eb1a] (21/21) Accurately ripped as in pressing(s) #1
03 [b358ef5b] (21/21) Accurately ripped as in pressing(s) #1
04 [dbff13e6] (22/22) Accurately ripped as in pressing(s) #1
05 [b40c46bf] (22/22) Accurately ripped as in pressing(s) #1
06 [277f15c7] (22/22) Accurately ripped as in pressing(s) #1
07 [ff6a7b2f] (22/22) Accurately ripped as in pressing(s) #1
08 [08c9a77e] (22/22) Accurately ripped as in pressing(s) #1
09 [80f429bd] (22/22) Accurately ripped as in pressing(s) #1
10 [5791d93e] (22/22) Accurately ripped as in pressing(s) #1
11 [a9cc5632] (21/21) Accurately ripped as in pressing(s) #1
12 [010119b6] (21/21) Accurately ripped as in pressing(s) #1

Track [ CRC32 ] [W/O NULL] [ LOG ]
-- [79BB3556] [5E97CA52] CRC32
01 [FE2ABA2A] [F1B9F336]
02 [C56F6B89] [ECAB4473]
03 [97814142] [4E0A84A2]
04 [AB8332DF] [AA30005A]
05 [5E9D1CA4] [968D26A2]
06 [C7813ECC] [CD56356C]
07 [782C6830] [5C709C60]
08 [ED4F7C99] [CB072C50]
09 [1294E04A] [D737BE1E]
10 [1EDD664B] [23C7A51A]
11 [DA41F40D] [369EC38E]
12 [2DCDB609] [CD78881A]
...
ADVERTISING » Download fast « ADVERTISING
Posted By: infimum Date: 25 Feb 2022 00:43:09
Thanks. I was just looking for Joe Henderson stuff.
Posted By: musician3 Date: 25 Feb 2022 03:31:49
Great.......Thank You
Posted By: Oceandrop Date: 25 Feb 2022 11:46:18
Thanks a lot for this beautiful album..
Recent searches:
DONATE AVAXHOME:

Donate please!