Loading...
Done
Home > Music > +Jazz
Posted By : paprica | Date : 17 Sep 2021 15:04:00 | Comments : 3 |

Donald Harrison, Ron Carter, Billy Cobham - New York Cool (Live at The Blue Note) (2005)
EAC | Flac(Tracks+Cue+Log+Cover) | 60:03min | 354 mb
MP3 | 320kbps | 152 mb
Genre: Jazz, Post-Bop | Label: Halfnote


Tracklist:

01. Body and Soul (10:51)
02. Harrisburg Address (10:28)
03. Easy Living (8:39)
04. I'll Remember April (9:32)
05. Star Eyes (10:35)
06. Third Plane (8:33)
07. Blues For Happy People (4:46)

Donald Harrison - Saxophone
Ron Carter - Double Bass
Billy Cobham - Drums

EAC LOG
Exact Audio Copy V0.99 prebeta 4 from 23. January 2008

EAC extraction logfile from 23. July 2008, 23:12

Donald Harrison, Ron Carter, Billy Cobham / New York Cool (Live at The Blue Note)

Used drive : HL-DT-STDVDRAM GSA-4167B Adapter: 0 ID: 0

Read mode : Secure
Utilize accurate stream : Yes
Defeat audio cache : Yes
Make use of C2 pointers : No

Read offset correction : 667
Overread into Lead-In and Lead-Out : No
Fill up missing offset samples with silence : Yes
Delete leading and trailing silent blocks : No
Null samples used in CRC calculations : Yes
Used interface : Native Win32 interface for Win NT & 2000
Gap handling : Appended to previous track

Used output format : User Defined Encoder
Selected bitrate : 1024 kBit/s
Quality : High
Add ID3 tag : No
Command line compressor : C:\Program Files\Exact Audio Copy\FLAC\FLAC.EXE
Additional command line options : -6 -V -T "ARTIST=%a" -T "TITLE=%t" -T "ALBUM=%g" -T "DATE=%y" -T "TRACKNUMBER=%n" -T "GENRE=%m" -T "COMMENT=%e" %s -o %d


TOC of the extracted CD

Track | Start | Length | Start sector | End sector
---------------------------------------------------------
1 | 0:00.00 | 10:51.12 | 0 | 48836
2 | 10:51.12 | 10:28.06 | 48837 | 95942
3 | 21:19.18 | 8:39.10 | 95943 | 134877
4 | 29:58.28 | 9:31.39 | 134878 | 177741
5 | 39:29.67 | 10:34.54 | 177742 | 225345
6 | 50:04.46 | 8:32.38 | 225346 | 263783
7 | 58:37.09 | 4:46.33 | 263784 | 285266


Track 1

Filename D:\UP\Billy Cobham, Donald Harrison, Ron Carter - Live at The Blue Note (New York - 2005)\01Body and Soul.wav

Pre-gap length 0:00:02.00

Peak level 83.1 %
Track quality 99.9 %
Test CRC F53828DB
Copy CRC F53828DB
Copy OK

Track 2

Filename D:\UP\Billy Cobham, Donald Harrison, Ron Carter - Live at The Blue Note (New York - 2005)\02Harrisburg Address.wav

Pre-gap length 0:00:02.00

Peak level 84.6 %
Track quality 100.0 %
Test CRC BF6FB067
Copy CRC BF6FB067
Copy OK

Track 3

Filename D:\UP\Billy Cobham, Donald Harrison, Ron Carter - Live at The Blue Note (New York - 2005)\03Easy Living.wav

Pre-gap length 0:00:02.00

Peak level 83.0 %
Track quality 100.0 %
Test CRC 97B5E855
Copy CRC 97B5E855
Copy OK

Track 4

Filename D:\UP\Billy Cobham, Donald Harrison, Ron Carter - Live at The Blue Note (New York - 2005)\04I'll Remember April.wav

Pre-gap length 0:00:02.00

Peak level 85.9 %
Track quality 100.0 %
Test CRC 27FEA3AD
Copy CRC 27FEA3AD
Copy OK

Track 5

Filename D:\UP\Billy Cobham, Donald Harrison, Ron Carter - Live at The Blue Note (New York - 2005)\05Star Eyes.wav

Pre-gap length 0:00:02.00

Peak level 83.0 %
Track quality 100.0 %
Test CRC 11828A45
Copy CRC 11828A45
Copy OK

Track 6

Filename D:\UP\Billy Cobham, Donald Harrison, Ron Carter - Live at The Blue Note (New York - 2005)\06Third Plane.wav

Pre-gap length 0:00:02.00

Peak level 87.4 %
Track quality 100.0 %
Test CRC 0FDC30F6
Copy CRC 0FDC30F6
Copy OK

Track 7

Filename D:\UP\Billy Cobham, Donald Harrison, Ron Carter - Live at The Blue Note (New York - 2005)\07Blues For Happy People.wav

Pre-gap length 0:00:02.00

Peak level 83.9 %
Track quality 100.0 %
Test CRC A7E51BD1
Copy CRC A7E51BD1
Copy OK

No errors occurred

End of status report


AUDIOCHECKER LOG
AUDIOCHECKER v2.0 beta (build 457) - by Dester - [email protected]
~~~~~~~~~~~~~~~~~~~~~~~~~~~~~~~~~~
-=== DO NOT EDIT THIS FILE! ===-

Path: ...\Donald Harrison, Ron Carter, Billy Cobham - New York Cool (Live at The Blue Note) (2005) [FLAC]

1 -=- 01Body and Soul.flac -=- CDDA (99%)
2 -=- 02Harrisburg Address.flac -=- CDDA (100%)
3 -=- 03Easy Living.flac -=- CDDA (100%)
4 -=- 04I'll Remember April.flac -=- CDDA (100%)
5 -=- 05Star Eyes.flac -=- CDDA (100%)
6 -=- 06Third Plane.flac -=- CDDA (100%)
7 -=- 07Blues For Happy People.flac -=- CDDA (100%)

Summary 99,86% CDDA

78392868


Review by Scott Yanow
Altoist Donald Harrison gained his initial fame in the late '70s when he was a member of Art Blakey's Jazz Messengers, following that up by co-leading a notable quintet with trumpeter Terence Blanchard. Although he never quite became a poll winner or a major influential force, Harrison has always been a solid improviser. New York Cool moves his career up a notch and is one of his finest recordings to date. Reuniting in 2005 with bassist Ron Carter and drummer Billy Cobham (the trio had recorded Heroes for the Nagel Heyer label in 2002), Harrison and his sidemen constantly challenge each other, with each of the musicians feeling free to set the direction of the performances. The repertoire is comprised of "Body and Soul," "Harrisburg Address" (based on "I Got Rhythm"), "Easy Living," "I'll Remember April," "Star Eyes," Ron Carter's "Third Plane" (which deserves to become a standard), and the medium-tempo "Blues for Happy People." The musicians feed off each other's ideas and their interplay is full of subtle surprises and unpredictable moments. New York Cool demonstrates that there is plenty of life still to be found in bebop standards when they are played in creative fashion. Highly recommended.

ADVERTISING » High Speed Download « ADVERTISING




Posted By: itadiegues Date: 17 Sep 2021 16:33:07
Thanks paprica for wonderful posts.
Posted By: r5user Date: 17 Sep 2021 17:06:29
Thanks for post.
Posted By: jazzyweb Date: 17 Sep 2021 22:08:44
Many thanks for the nice album !
Recent searches: