Loading...
Done
Home > Music
Isaac Hayes - Black Moses (1971) [2CD] {Stax}
Posted By : ruskaval | Date : 04 Jan 2022 06:45:24 | Comments : 11

Isaac Hayes - Black Moses (1971) [2CD] {Stax}
EAC rip (secure mode) | FLAC+CUE+LOG -> 610 Mb | MP3 @320 -> 212 Mb
Full Artwork @ 300 dpi (jpg) -> 10 Mb
© 1989 Fantasy / Stax Records | 2SCD-88006-2
Soul / Southern Soul / Funk / Smooth Soul



Black Moses, the original LP cover of which unfolded in the shape of a cross three feet wide and four feet tall, "is a wondrously crafted, intense evocation of the vagaries of love gone bad," in the words of Stax historian Rob Bowman. Hayes used songs popularized by such artists as the Jackson 5, the Carpenters, Toussaint McCall, Little Johnny Taylor, Jerry Butler, the Whispers, Ray Price, and Dionne Warwick, along with his own highly erotic "Good Love," to express the heartbreak he was feeling about the breakup of his own marriage. "Isaac's ability to take other people's material and make it so deeply personal," Bowman observed, "is nothing short of brilliant."

tracklist:
CD1
1. Never Can Say Goodbye 5:10
2. Close To You 2:45
3. Nothing Takes The Place Of You 5:29
4. Man's Temptation 4:59
5. Part Time Love 3:48
6. Medley: Ike's Rap IV / A Brand New Me 9:43
7. Going In Circles 6:59

CD2
1. Never Give You Up (Never Gonna Give) 10:34
2. Medley: Ike's Rap II / Help Me Love
3. Need To Belong To Someone 5:15
4. Good Love 5:15
5. Medley: Ike's Rap III / Your Love Is So Doggone Good
6. For The Good Times 5:20
7. I'll Never Fall In Love Again 4:59


EAC log
Exact Audio Copy V0.99 prebeta 5 from 4. May 2009

EAC extraction logfile from 2. January 2010, 11:55

Isaac Hayes / Black Moses (CD1)

Used drive : TSSTcorpCD/DVDW TS-H552L Adapter: 3 ID: 0

Read mode : Secure
Utilize accurate stream : Yes
Defeat audio cache : Yes
Make use of C2 pointers : No

Read offset correction : 6
Overread into Lead-In and Lead-Out : No
Fill up missing offset samples with silence : Yes
Delete leading and trailing silent blocks : No
Null samples used in CRC calculations : Yes
Used interface : Native Win32 interface for Win NT & 2000
Gap handling : Appended to previous track

Used output format : User Defined Encoder
Selected bitrate : 1024 kBit/s
Quality : High
Add ID3 tag : No
Command line compressor : C:\Program Files\FLAC\flac.exe
Additional command line options : -6 -V -T "ARTIST=%a" -T "TITLE=%t" -T "ALBUM=%g" -T "DATE=%y" -T "TRACKNUMBER=%n" -T "GENRE=%m" -T "COMMENT=EAC FLAC -6" %s


TOC of the extracted CD

Track | Start | Length | Start sector | End sector
---------------------------------------------------------
1 | 0:00.00 | 5:10.10 | 0 | 23259
2 | 5:10.10 | 9:05.20 | 23260 | 64154
3 | 14:15.30 | 5:31.55 | 64155 | 89034
4 | 19:47.10 | 5:03.57 | 89035 | 111816
5 | 24:50.67 | 8:34.28 | 111817 | 150394
6 | 33:25.20 | 9:43.52 | 150395 | 194171
7 | 43:08.72 | 7:01.55 | 194172 | 225801


Track 1

Filename C:\Isaac Hayes - Black Moses (1971) [2CD] {Stax}\CD1\01 - Never Can Say Goodbye.wav

Pre-gap length 0:00:02.00

Peak level 95.9 %
Track quality 99.9 %
Test CRC DF7028AA
Copy CRC DF7028AA
Accurately ripped (confidence 3) [FB762195]
Copy OK

Track 2

Filename C:\Isaac Hayes - Black Moses (1971) [2CD] {Stax}\CD1\02 - (They Long To Be) Close To You.wav

Pre-gap length 0:00:02.38

Peak level 100.0 %
Track quality 100.0 %
Test CRC 3A3621C2
Copy CRC 3A3621C2
Accurately ripped (confidence 3) [EA746C73]
Copy OK

Track 3

Filename C:\Isaac Hayes - Black Moses (1971) [2CD] {Stax}\CD1\03 - Nothing Takes The Place Of You.wav

Pre-gap length 0:00:05.23

Peak level 100.0 %
Track quality 99.9 %
Test CRC F31028CF
Copy CRC F31028CF
Accurately ripped (confidence 3) [2AD2E53F]
Copy OK

Track 4

Filename C:\Isaac Hayes - Black Moses (1971) [2CD] {Stax}\CD1\04 - Man's Temptation.wav

Pre-gap length 0:00:04.13

Peak level 100.0 %
Track quality 100.0 %
Test CRC 68CCB51D
Copy CRC 68CCB51D
Accurately ripped (confidence 3) [6755EAD6]
Copy OK

Track 5

Filename C:\Isaac Hayes - Black Moses (1971) [2CD] {Stax}\CD1\05 - Part-Time Love.wav

Pre-gap length 0:00:02.22

Peak level 100.0 %
Track quality 99.9 %
Test CRC A122D7CF
Copy CRC A122D7CF
Accurately ripped (confidence 3) [BF177C09]
Copy OK

Track 6

Filename C:\Isaac Hayes - Black Moses (1971) [2CD] {Stax}\CD1\06 - Medley- Ike's Rap IV , A Brand New Me.wav

Pre-gap length 0:00:05.05

Peak level 100.0 %
Track quality 100.0 %
Test CRC 7A1AB37A
Copy CRC 7A1AB37A
Accurately ripped (confidence 3) [821B3887]
Copy OK

Track 7

Filename C:\Isaac Hayes - Black Moses (1971) [2CD] {Stax}\CD1\07 - Going In Circles.wav

Pre-gap length 0:00:04.10

Peak level 89.4 %
Track quality 99.9 %
Test CRC 60F9119D
Copy CRC 60F9119D
Accurately ripped (confidence 3) [6A39C27F]
Copy OK


All tracks accurately ripped

No errors occurred

End of status report
---------------------------------------------------------------------------------------------------------------------------------
Exact Audio Copy V0.99 prebeta 5 from 4. May 2009

EAC extraction logfile from 2. January 2010, 12:03

Isaac Hayes / Black Moses (CD2)

Used drive : TSSTcorpCD/DVDW TS-H552L Adapter: 3 ID: 0

Read mode : Secure
Utilize accurate stream : Yes
Defeat audio cache : Yes
Make use of C2 pointers : No

Read offset correction : 6
Overread into Lead-In and Lead-Out : No
Fill up missing offset samples with silence : Yes
Delete leading and trailing silent blocks : No
Null samples used in CRC calculations : Yes
Used interface : Native Win32 interface for Win NT & 2000
Gap handling : Appended to previous track

Used output format : User Defined Encoder
Selected bitrate : 1024 kBit/s
Quality : High
Add ID3 tag : No
Command line compressor : C:\Program Files\FLAC\flac.exe
Additional command line options : -6 -V -T "ARTIST=%a" -T "TITLE=%t" -T "ALBUM=%g" -T "DATE=%y" -T "TRACKNUMBER=%n" -T "GENRE=%m" -T "COMMENT=EAC FLAC -6" %s


TOC of the extracted CD

Track | Start | Length | Start sector | End sector
---------------------------------------------------------
1 | 0:00.00 | 5:47.17 | 0 | 26041
2 | 5:47.17 | 7:33.40 | 26042 | 60056
3 | 13:20.57 | 5:16.15 | 60057 | 83771
4 | 18:36.72 | 5:18.33 | 83772 | 107654
5 | 23:55.30 | 9:18.10 | 107655 | 149514
6 | 33:13.40 | 5:24.12 | 149515 | 173826
7 | 38:37.52 | 4:55.65 | 173827 | 196016


Track 1

Filename C:\Isaac Hayes - Black Moses (1971) [2CD] {Stax}\CD2\01 - Never Gonna Give You Up.wav

Pre-gap length 0:00:02.00

Peak level 91.6 %
Track quality 100.0 %
Test CRC 6E644909
Copy CRC 6E644909
Accurately ripped (confidence 3) [4C856268]
Copy OK

Track 2

Filename C:\Isaac Hayes - Black Moses (1971) [2CD] {Stax}\CD2\02 - Medley- Ike's Rap II , Help Me Love.wav

Pre-gap length 0:00:01.60

Peak level 100.0 %
Track quality 100.0 %
Test CRC 75BB122C
Copy CRC 75BB122C
Accurately ripped (confidence 3) [901CF440]
Copy OK

Track 3

Filename C:\Isaac Hayes - Black Moses (1971) [2CD] {Stax}\CD2\03 - Need To Belong To Someone.wav

Pre-gap length 0:00:05.37

Peak level 96.3 %
Track quality 100.0 %
Test CRC 264D2BF5
Copy CRC 264D2BF5
Accurately ripped (confidence 3) [399623F7]
Copy OK

Track 4

Filename C:\Isaac Hayes - Black Moses (1971) [2CD] {Stax}\CD2\04 - Good Love.wav

Pre-gap length 0:00:01.25

Peak level 97.9 %
Track quality 99.9 %
Test CRC D1447A67
Copy CRC D1447A67
Accurately ripped (confidence 3) [B706CBA4]
Copy OK

Track 5

Filename C:\Isaac Hayes - Black Moses (1971) [2CD] {Stax}\CD2\05 - Medley- Ike's Rap III , Your love Is So Doggone Good.wav

Pre-gap length 0:00:02.05

Peak level 100.0 %
Track quality 100.0 %
Test CRC 5C3CDCC2
Copy CRC 5C3CDCC2
Accurately ripped (confidence 3) [5343B2D6]
Copy OK

Track 6

Filename C:\Isaac Hayes - Black Moses (1971) [2CD] {Stax}\CD2\06 - For The Good Times.wav

Pre-gap length 0:00:02.60

Peak level 96.9 %
Track quality 100.0 %
Test CRC 88447D84
Copy CRC 88447D84
Accurately ripped (confidence 3) [D0EFB68C]
Copy OK

Track 7

Filename C:\Isaac Hayes - Black Moses (1971) [2CD] {Stax}\CD2\07 - I'll Never Fall In Love Again.wav

Pre-gap length 0:00:03.12

Peak level 99.9 %
Track quality 99.9 %
Test CRC B1B0F240
Copy CRC B1B0F240
Accurately ripped (confidence 3) [1DB9A9F4]
Copy OK


All tracks accurately ripped

No errors occurred

End of status report

Please don't post the links and passes in your comments...

Linkz
ADVERTISING » Download fast « ADVERTISING
Posted By: wersollsschonsein Date: 04 Jan 2022 08:57:13
Cheers from Ireland
Posted By: neutronsix Date: 04 Jan 2022 10:33:26
Thank for this gift. Wonderful gift.
Posted By: SteveJobs Date: 04 Jan 2022 15:32:36
I have to fully agree with neutronsix! Thank you very much for this wonderful album!
Posted By: ivory-d Date: 04 Jan 2022 18:38:26
I'm sure to enjoy this one. Thank you!
Posted By: EktorasClub Date: 04 Jan 2022 19:10:29
Thank you very much!!!!
Posted By: altcerf Date: 04 Jan 2022 22:26:56
Many thanks, ruskaval! More Isaac Hayes please:)
Posted By: j33433 Date: 05 Jan 2022 15:16:55
Thanks so much. Magical album.
Posted By: syda Date: 05 Jan 2022 21:26:39
Thanks!

You (or anyone else) wouldn't by chance have "Shaft"?
with the correct -faded- ending of 14 - "do your thing" - not the incorrect "scratched ending"
Have been looking eveywhere.

I have it on LP, but don't play LP's anymore
Posted By: ruskaval Date: 06 Jan 2022 09:04:35
@ syda
sorry, i haven't this one...
maybe Shaft 2009 Concord edition?
Posted By: syda Date: 06 Jan 2022 13:55:17
Looks promising
Posted By: eisler444 Date: 06 Jan 2022 16:11:56
Спасибо!!!
DONATE AVAXHOME:

Donate please!