Loading...
Done
Home > Music
Handel – Duetti Italiani (Rossana Bertini, Claudio Cavina, La Venexiana)
Posted By : ArlegZ | Date : 06 Feb 2022 00:30:30 | Comments : 12

Handel – Duetti Italiani (Rossana Bertini, Claudio Cavina, La Venexiana)
Baroque | 1 CD | EAC | APE+CUE+LOG | Covers | 349 MB | rs.com | TT 66’46
Recording: 1997 | Released: 2002 | Label: Cantus


Performer:
Rossana Bertini - soprano
Claudio Cavina – contratenor y direccion
La Venexiana

TRACK LIST

1. VIII: A mirarvi io son intento, HWV 178
2. Ma l'amor
3. E vibrando
4. XIII: Langue, geme e sospira, HWV 188
5. Cangia i gemiti
6. XII: Tanti strali al sen, HWV 197
7. Ma se l'alma
8. Dunque annoda
9. XVIII: Beato in ver chi puo, HWV 181
10. XIX: Fronda leggiera e mobile, HWV 186
11. Saggio quel cor
12. III: Sono liete, fortunate, HWV 194
13. Crudeltа
14. Non avran mai
15. XIV: Se tu non lasci amore, HWV 193
16. Ma, con chi parlo
17. Quando non ho piu core
18. XVII: No, di voi non vuo’ fidarmi, HWV 190
19. Altra volta
20. So per prova
21. IV: Troppo cruda, HWV 198
22. Ma la speme
23. Infiammate
24. A chi spera
25. XI: Conservate, raddoppiate, HWV 185
26. Nodi voi

LOG

Exact Audio Copy V0.99 prebeta 4 from 23. January 2008

Отчёт EAC об извлечении, выполненном 12. января 2010, 22:44

Rossana Bertini, Claudio Cavina & La Venexiana / Handel - Duetti Italiani

Дисковод: Optiarc DVD RW AD-7173A Adapter: 1 ID: 1

Режим чтения : Достоверность
Использование точного потока : Да
Отключение кэша аудио : Да
Использование указателей C2 : Нет

Коррекция смещения при чтении : 48
Способность читать области Lead-in и Lead-out : Нет
Заполнение пропущенных сэмплов тишиной : Да
Удаление блоков с тишиной в начале и конце : Нет
При вычислениях CRC использовались нулевые сэмплы : Да
Интерфейс : Встроенный Win32-интерфейс для Win NT/2000

Выходной формат : Внутренние WAV-операции
Формат сэмплов : 44.100 Гц; 16 бит; стерео


TOC извлечённого CD

Трек | Старт | Длительность | Начальный сектор | Конечный сектор
---------------------------------------------------------------------
1 | 0:00.00 | 6:38.67 | 0 | 29916
2 | 6:38.67 | 1:25.54 | 29917 | 36345
3 | 8:04.46 | 1:52.68 | 36346 | 44813
4 | 9:57.39 | 4:12.38 | 44814 | 63751
5 | 14:10.02 | 1:30.19 | 63752 | 70520
6 | 15:40.21 | 3:39.12 | 70521 | 86957
7 | 19:19.33 | 2:26.14 | 86958 | 97921
8 | 21:45.47 | 1:46.57 | 97922 | 105928
9 | 23:32.29 | 6:29.21 | 105929 | 135124
10 | 30:01.50 | 3:05.23 | 135125 | 149022
11 | 33:06.73 | 3:46.04 | 149023 | 165976
12 | 36:53.02 | 2:08.16 | 165977 | 175592
13 | 39:01.18 | 0:32.49 | 175593 | 178041
14 | 39:33.67 | 1:25.20 | 178042 | 184436
15 | 40:59.12 | 3:54.63 | 184437 | 202049
16 | 44:54.00 | 1:09.41 | 202050 | 207265
17 | 46:03.41 | 1:57.52 | 207266 | 216092
18 | 48:01.18 | 2:26.46 | 216093 | 227088
19 | 50:27.64 | 2:06.29 | 227089 | 236567
20 | 52:34.18 | 2:09.28 | 236568 | 246270
21 | 54:43.46 | 1:02.32 | 246271 | 250952
22 | 55:46.03 | 2:20.28 | 250953 | 261480
23 | 58:06.31 | 1:15.28 | 261481 | 267133
24 | 59:21.59 | 3:41.42 | 267134 | 283750
25 | 63:03.26 | 1:25.12 | 283751 | 290137
26 | 64:28.38 | 2:27.27 | 290138 | 301189


Характеристики диапазона извлечения и сообщения об ошибках

Выбранный диапазон

Имя файла C:\Documents and Settings\Handel - Duetti Italiani.wav

Пиковый уровень 97.5 %
Качество диапазона 99.9 %
CRC копии E1A8C9E3
Копирование... OK

Ошибок не произошло

Конец отчёта


RS


No mirrors, please

ADVERTISING » Download fast « ADVERTISING
Posted By: odd189 Date: 06 Feb 2022 03:05:19
thank you !
Posted By: FIboreka Date: 06 Feb 2022 06:13:19
Thank you!
Posted By: zinest Date: 06 Feb 2022 08:52:42
Merci mille fois!
Posted By: lubino Date: 06 Feb 2022 13:31:14
Why is it too difficult to provide a correct cuesheet?
Posted By: ArlegZ Date: 06 Feb 2022 14:30:38
What is not pleasant? Сuesheet completely repeats tracks that are written in the booklet.
Posted By: lubino Date: 06 Feb 2022 14:51:28
Unfortunately the heavy intonationa problems of both singers turn this recording into a waste of time and plastic.
Posted By: kicsibéka Date: 06 Feb 2022 15:06:35
@lubino: Your opinion and criticisms are valuable, and I don't take exception to them. But it would be nice, occasionally, to see a positive comment, to know what you like, to hear what you consider well done, or just a "thanks" to the uploader.

The rest of us will listen and come to our own conclusions. Thank you, ArlegZ, for making so much possible.
Posted By: Ockeghem Date: 06 Feb 2022 20:02:32
Lubino, you can buy a new pair of ears, and possibly a new brain as well..

Although my opinion is by no means objective, I have to say that this is by far the best version available of these duets, both in terms of vocal technique and expressivity. By the way, it was released in 1997 and re-released (second edition, once the first was sold out) in 2002. And as always when it refers to Spanish early music label Cantus, it comes with the most complete liner notes imaginable (although not scanned here, cause the booklet comes to some 70 pages or so.
Posted By: cayel69 Date: 06 Feb 2022 23:32:32
@ArlegZ: Thanks a lot for the post. It´s the best version I´ve ever heard of this duets.
@lubino: I´m waiting for your post to show us the way they have to be done (have you ever posted any???) I don´t think so.
Posted By: 3v88 Date: 07 Feb 2022 10:12:38
@ArlegZ: Thank you for the post! It's the set of Duetti I have been looking for for a lot of time!
Posted By: ArlegZ Date: 07 Feb 2022 12:37:49
I am very glad, dear friends that you, as well as me (except lubino), liked this record:) Thanks for yours responses!
Posted By: Ockeghem Date: 07 Feb 2022 13:12:59
La Venexiana did another great recording for Cantus before passing to Glossa, devoted to Barbara Strozzi's first book of madrigals. That was their first ever recording of madrigals after the group split from Concerto Italiano, beginning to work under the name La Venexiana.

http://www.cantus-records.com
Recent searches:
DONATE AVAXHOME:

Donate please!