Loading...
Done
Home > Music > Fileformat > Lossless (wav, ape, flac ...)
Posted By : wustenratte | Date : 26 Feb 2022 09:39:39 | Comments : 0 |

Various Artists: A Dubber's Guide (2001)
EAC rip | FLAC + LOG + CUE | Scans | 387,3 MB | RS | 3% recovery
Label: Dubhead DBHD 024CD | Genre: Digi-Dub

Another weighty compilation from the U.K dub specialist label Dubhead. Using the tried and tested successful formula of mixing known names and introducing new acts along the way. The running order takes in a lot of what’s most happening on the current U.K dub steppers scene including The Bush Chemists, Love Grocer, Urban Dub, The Disciples, Aba Shanties ‘The Shanties’, William The Conqueror, Twilight Circus and Dubclash.


1. Mungo's Hi Fi featuring Brother Culture: Jah Come To I
2. Bush Chemists: Long Time Dub
3. The Love Grocer: Waiting At The Gate
4. Dubclash: Fire the Chalice Of Dub
5. Jah Warrior featuring Singer Blue: From the Bottom of My Heart
6. Urban Dub: War (In Dub)
7. Goldmaster Allstars: Push Harder
8. Etherealites: King David Style (Dubplate Mix)
9. Jonah Dan: Awakening
10. Headmix: Reach Out Dub
11. William the Conqueror: Abraham
12. Disciples featuring Delroy Dyer: African Soul
13. The Shanti-ites: Rising of the Sun
14. Twilight Circus: Mega Steppers

EAC LOG
Exact Audio Copy V0.99 prebeta 4 from 23. January 2008

EAC extraction logfile from 22. February 2010, 11:53

Various Artists / A Dubber's Guide

Used drive : Optiarc DVD RW AD-7560A Adapter: 0 ID: 0

Read mode : Secure
Utilize accurate stream : Yes
Defeat audio cache : Yes
Make use of C2 pointers : No

Read offset correction : 6
Overread into Lead-In and Lead-Out : No
Fill up missing offset samples with silence : Yes
Delete leading and trailing silent blocks : No
Null samples used in CRC calculations : Yes
Used interface : Native Win32 interface for Win NT & 2000

Used output format : Internal WAV Routines
Sample format : 44.100 Hz; 16 Bit; Stereo


TOC of the extracted CD

Track | Start | Length | Start sector | End sector
---------------------------------------------------------
1 | 0:00.00 | 5:59.39 | 0 | 26963
2 | 5:59.39 | 3:57.03 | 26964 | 44741
3 | 9:56.42 | 4:51.61 | 44742 | 66627
4 | 14:48.28 | 4:43.56 | 66628 | 87908
5 | 19:32.09 | 3:54.06 | 87909 | 105464
6 | 23:26.15 | 4:22.01 | 105465 | 125115
7 | 27:48.16 | 5:20.11 | 125116 | 149126
8 | 33:08.27 | 4:54.09 | 149127 | 171185
9 | 38:02.36 | 3:51.24 | 171186 | 188534
10 | 41:53.60 | 4:36.66 | 188535 | 209300
11 | 46:30.51 | 4:44.49 | 209301 | 230649
12 | 51:15.25 | 4:20.53 | 230650 | 250202
13 | 55:36.03 | 5:49.69 | 250203 | 276446
14 | 61:25.72 | 4:34.20 | 276447 | 297016


Range status and errors

Selected range

Filename C:\DESERTRAT EAC RIPs\VA - A Dubbers Guide\Various Artists - A Dubber's Guide.wav

Peak level 100.0 %
Range quality 99.9 %
Test CRC 255166D8
Copy CRC 255166D8
Copy OK

No errors occurred


AccurateRip summary

Track 1 not present in database
Track 2 not present in database
Track 3 not present in database
Track 4 not present in database
Track 5 not present in database
Track 6 not present in database
Track 7 not present in database
Track 8 not present in database
Track 9 not present in database
Track 10 not present in database
Track 11 not present in database
Track 12 not present in database
Track 13 not present in database
Track 14 not present in database

None of the tracks are present in the AccurateRip database

End of status report


Please don't post links and/or passes in your comments...

rs links text file

More DUBHEAD titles at my blog
ADVERTISING » Download fast « ADVERTISING




No comments for the news
Recent searches: