Loading...
Done
Home > Music > Fileformat > Lossless (wav, ape, flac ...)
Mike Oldfield - Voyager (1996)
Posted By : revenge67 | Date : 28 Feb 2022 15:07:26 | Comments : 0


Mike Oldfield - Voyager (1996)
Genre: Celtic New Age | 1CD | FLAC, CUE, LOG, Covers 600 DPI | 367 Mb
Original Release Date: April 1996 | Publisher: WEA | RapidShare - Uploading - HotFile

Voyager è un album del compositore inglese Mike Oldfield. È caratterizzato da atmosfere celtiche e new age. Infatti l'album fu prodotto da Rob Dickins che all'epoca collaborava anche con Enya. Il brano Women Of Ireland è stato utilizzato come colonna sonora per uno spot, andato in onda nel 2000, della Birra Peroni, nonché uno dei brani della colonna sonora del film Barry Lyndon di Kubrick..


EAC Log
V0.99 prebeta 5 from 4. May 2009

Estrazione file di log EAC da 26. Febbraio 2010, 19:21

Mike Oldfield / Voyager

Unità predefinita: PHILIPS DVDR1640P Adapter: 0 ID: 1

Modalità di lettura: :
: Sì
: No
: No

Correzione offset di lettura: : 618
Sovrascrivi anche nel Lead-In e Lead-Out : No
Riempi sample offset mancanti con silenzio : Sì
Rimuovi blocchi di silezio ad inizio e fine : No
: No
: Interfaccia nativa Win32 per Windows NT & 2000
:

Formato di destinazione scelto: : Usa Encoder definito da utente
: 1024 kBit/s
: Alta
: No
: C:\Program Files\Exact Audio Copy\FLAC\FLAC.EXE
Opzioni aggiuntive da riga di comando: : -6 -V -T "ARTIST=%a" -T "TITLE=%t" -T "ALBUM=%g" -T "DATE=%y" -T "TRACKNUMBER=%n" -T "GENRE=%m" -T "COMMENT=%e" %s -o %d




| | | |
--------------------------------------------
1 | 0:00.00 | 4:32.60 | 0 | 20459
2 | 4:32.60 | 4:41.35 | 20460 | 41569
3 | 9:14.20 | 5:03.67 | 41570 | 64361
4 | 14:18.12 | 6:29.53 | 64362 | 93589
5 | 20:47.65 | 4:26.12 | 93590 | 113551
6 | 25:14.02 | 4:06.58 | 113552 | 132059
7 | 29:20.60 | 5:43.42 | 132060 | 157826
8 | 35:04.27 | 5:04.53 | 157827 | 180679
9 | 40:09.05 | 6:03.25 | 180680 | 207929
10 | 46:12.30 | 12:18.45 | 207930 | 263324


Traccia 1

Nome file C:\Users\Lore\FLAC\01 - The Song Of The Sun (Mike Oldfield).wav

Livello di picco 78.3 %
Qualità traccia 100.0 %
Copia CRC 74932D04
170) [6C1E7735]
Copia corretta

Traccia 2

Nome file C:\Users\Lore\FLAC\02 - Celtic Rain (Mike Oldfield).wav

Livello di picco 78.0 %
Qualità traccia 100.0 %
Copia CRC 2A9FD149
171) [8CC2F157]
Copia corretta

Traccia 3

Nome file C:\Users\Lore\FLAC\03 - The Hero (Mike Oldfield).wav

Livello di picco 100.0 %
Qualità traccia 100.0 %
Copia CRC 38E0A51A
172) [EBEFD98D]
Copia corretta

Traccia 4

Nome file C:\Users\Lore\FLAC\04 - Women Of Ireland (Mike Oldfield).wav

Livello di picco 100.0 %
Qualità traccia 100.0 %
Copia CRC B87F1448
170) [59C785F5]
Copia corretta

Traccia 5

Nome file C:\Users\Lore\FLAC\05 - The Voyager (Mike Oldfield).wav

Livello di picco 89.1 %
Qualità traccia 100.0 %
Copia CRC E71B9956
169) [812F4C05]
Copia corretta

Traccia 6

Nome file C:\Users\Lore\FLAC\06 - She Moves Through The Fair (Mike Oldfield).wav

Livello di picco 79.0 %
Qualità traccia 100.0 %
Copia CRC 6003AE1F
170) [20FD4D9C]
Copia corretta

Traccia 7

Nome file C:\Users\Lore\FLAC\07 - Dark Island (Mike Oldfield).wav

Livello di picco 100.0 %
Qualità traccia 100.0 %
Copia CRC 662107F6
171) [361E2D56]
Copia corretta

Traccia 8

Nome file C:\Users\Lore\FLAC\08 - Wild Goose Flaps Its Wings (Mike Oldfield).wav

Livello di picco 89.4 %
Qualità traccia 100.0 %
Copia CRC F21AACC1
171) [159A4BCF]
Copia corretta

Traccia 9

Nome file C:\Users\Lore\FLAC\09 - Flowers Of The Forest (Mike Oldfield).wav

Livello di picco 90.2 %
Qualità traccia 100.0 %
Copia CRC 3DF92DA2
170) [FCF31651]
Copia corretta

Traccia 10

Nome file C:\Users\Lore\FLAC\10 - Mont St Michel (Mike Oldfield).wav

Livello di picco 100.0 %
Qualità traccia 100.0 %
Copia CRC BBE39853
164) [779BD938]
Copia corretta




Non sono stati riscontrati errori

Fine del resoconto di stato


TrackList
01. The Song Of The Sun - 4:33 - (Bieito Romero)
02. Celtic Rain - 4:41 - (Mike Oldfield)
03. The Hero - 5:04 - (brano tradizionale)
04. Women Of Ireland - 6:30 - (brano tradizionale)
05. The Voyager - 4:26 - (Mike Oldfield)
06. She Moves Through The Fair - 4:07 - (brano tradizionale)
07. Dark Island - 5:44 - (brano tradizionale scozzese)
08. Wild Goose Flaps Its Wings - 5:05 - (Mike Oldfield)
09. Flowers Of The Forest - 6:03] - (brano tradizionale)
10. Mont St. Michel - 12:19 - (Mike Oldfield)



ADVERTISING » Download fast « ADVERTISING
No comments for the news
Recent searches:
DONATE AVAXHOME:

Donate please!