Loading...
Done
Home > Music > Fileformat > Lossless (wav, ape, flac ...)
J.J. Cale – Rewind – Unrelased Recordings (2007)
Posted By : janwal46 | Date : 22 Nov 2021 12:09:39 | Comments : 2


J.J. Cale - Rewind – Unrelased Recordings (2007)
W14 Music | 2007 | Country Blues Rock | EAC RIP | FLAC+CUE+LOG+HQ-Covers (400Dpi) | 210Mb+28Mb

This collection of JJ Cale spans over a period of twenty years, but as Cale's style and sounds have not changed very much over the years, the album comes out as a pretty consistent collection. Most tracks are easily as good as many of the songs that were originally released on his regular albums. On the other hand a lot of them do sound like alternate versions of well-known Cale songs.
A good handful of them do stand out on their own. First track that really stirred my attention was Cale's version of Clapton's "Golden Ring". As I never was a big fan of Clapton's I did not know the song beforehand; but Cale's version is really very strong.
Two songs were written by Cale's musical partner for many years, Christine Lakeland. They are both good, though the first "Seven Day Woman" does sound a little like it was abandoned at an unfinished stage. "Ooh La La" which co-written with Cale, has a great horn arrangement and is definitely one of the stand-outs.
Other favourites are the melodic closing track "It's Good to Be in Austin" and the country waltz "My Baby and Me" - though quite reminiscent of "Rose in the Garden" from "Closer to You".
The album is sure to please any fan of Cale, and though it probably would not be the logical album to start a Cale presention, I don't think it would scare any potential new fans away.

Please note that this not my rip. Thanks to johhenrik for the music files, and farabut and dejanG for the covers. I considered it to be useful to post this album as a whole for those who missed it in the comments of one of my other JJ posts.

Tracklist:

01. Guess I Lose
02. Waymore's Blues
03. Rollin'
04. Golden Ring
05. My Cricket
06. Since You Said Goodbye
07. Seven Day Woman
08. Bluebird
09. My Baby and Me
10. Lawdy Mama
11. Blue Sunday
12. Out of Style
13. Ooh La La
14. All Mama's Children

Sound Quality: 8/9

EAC LOG
Exact Audio Copy V0.99 prebeta 4 from 23. January 2008

EAC extraction logfile from 7. July 2008, 0:34

J.J. Cale / Rewind

Used drive : _NEC DVD_RW ND-3550A Adapter: 0 ID: 0

Read mode : Secure
Utilize accurate stream : Yes
Defeat audio cache : No
Make use of C2 pointers : No

Read offset correction : 48
Overread into Lead-In and Lead-Out : No
Fill up missing offset samples with silence : Yes
Delete leading and trailing silent blocks : No
Null samples used in CRC calculations : Yes
Used interface : Native Win32 interface for Win NT & 2000
Gap handling : Appended to previous track

Used output format : User Defined Encoder
Selected bitrate : 768 kBit/s
Quality : High
Add ID3 tag : No
Command line compressor : C:\Program Files\Exact Audio Copy\FLAC\FLAC.EXE
Additional command line options : -V -8 -T "artist=%a" -T "title=%t" -T "album=%g" -T "date=%y" -T "tracknumber=%n" -T "genre=%m" %s


TOC of the extracted CD

Track | Start | Length | Start sector | End sector
---------------------------------------------------------
1 | 0:00.00 | 2:51.52 | 0 | 12876
2 | 2:51.52 | 2:39.29 | 12877 | 24830
3 | 5:31.06 | 2:55.15 | 24831 | 37970
4 | 8:26.21 | 3:05.73 | 37971 | 51918
5 | 11:32.19 | 2:34.68 | 51919 | 63536
6 | 14:07.12 | 2:46.63 | 63537 | 76049
7 | 16:54.00 | 2:20.07 | 76050 | 86556
8 | 19:14.07 | 1:26.54 | 86557 | 93060
9 | 20:40.61 | 2:21.73 | 93061 | 103708
10 | 23:02.59 | 2:56.49 | 103709 | 116957
11 | 25:59.33 | 3:14.52 | 116958 | 131559
12 | 29:14.10 | 2:24.29 | 131560 | 142388
13 | 31:38.39 | 3:28.21 | 142389 | 158009
14 | 35:06.60 | 2:08.56 | 158010 | 167665


Track 1

Filename D:\Music\EAC Audio\FLAC\J.J. Cale\Rewind\01 - Guess I Lose.wav

Pre-gap length 0:00:02.00

Peak level 98.8 %
Track quality 99.9 %
Test CRC 57BE4926
Copy CRC 57BE4926
Accurately ripped (confidence 6) [8A90CE03]
Copy OK

Track 2

Filename D:\Music\EAC Audio\FLAC\J.J. Cale\Rewind\02 - Waymore's Blues.wav

Pre-gap length 0:00:02.59

Peak level 98.8 %
Track quality 99.9 %
Test CRC D244350E
Copy CRC D244350E
Accurately ripped (confidence 6) [37ACAED0]
Copy OK

Track 3

Filename D:\Music\EAC Audio\FLAC\J.J. Cale\Rewind\03 - Rollin'.wav

Pre-gap length 0:00:02.12

Peak level 98.8 %
Track quality 100.0 %
Test CRC E48D5DD0
Copy CRC E48D5DD0
Accurately ripped (confidence 6) [C279267B]
Copy OK

Track 4

Filename D:\Music\EAC Audio\FLAC\J.J. Cale\Rewind\04 - Golden Ring.wav

Pre-gap length 0:00:01.36

Peak level 98.8 %
Track quality 99.9 %
Test CRC F6971AD1
Copy CRC F6971AD1
Accurately ripped (confidence 6) [F31D2BFE]
Copy OK

Track 5

Filename D:\Music\EAC Audio\FLAC\J.J. Cale\Rewind\05 - My Cricket.wav

Pre-gap length 0:00:01.21

Peak level 98.8 %
Track quality 100.0 %
Test CRC 0786EB84
Copy CRC 0786EB84
Accurately ripped (confidence 6) [83150E0E]
Copy OK

Track 6

Filename D:\Music\EAC Audio\FLAC\J.J. Cale\Rewind\06 - Since You Said Goodbye.wav

Pre-gap length 0:00:01.64

Peak level 93.7 %
Track quality 100.0 %
Test CRC FD79BEBD
Copy CRC FD79BEBD
Accurately ripped (confidence 5) [31EEB3DA]
Copy OK

Track 7

Filename D:\Music\EAC Audio\FLAC\J.J. Cale\Rewind\07 - Seven Day Woman.wav

Peak level 98.8 %
Track quality 99.9 %
Test CRC 57C2D924
Copy CRC 57C2D924
Accurately ripped (confidence 5) [344EFC00]
Copy OK

Track 8

Filename D:\Music\EAC Audio\FLAC\J.J. Cale\Rewind\08 - Bluebird.wav

Pre-gap length 0:00:01.10

Peak level 98.5 %
Track quality 100.0 %
Test CRC 8BD758E2
Copy CRC 8BD758E2
Accurately ripped (confidence 6) [491F102C]
Copy OK

Track 9

Filename D:\Music\EAC Audio\FLAC\J.J. Cale\Rewind\09 - My Baby and Me.wav

Peak level 98.8 %
Track quality 100.0 %
Test CRC A727CEB8
Copy CRC A727CEB8
Accurately ripped (confidence 6) [8F4359F1]
Copy OK

Track 10

Filename D:\Music\EAC Audio\FLAC\J.J. Cale\Rewind\10 - Lawdy Mama.wav

Pre-gap length 0:00:01.62

Peak level 88.0 %
Track quality 99.9 %
Test CRC E262809C
Copy CRC E262809C
Accurately ripped (confidence 6) [6B2AFFED]
Copy OK

Track 11

Filename D:\Music\EAC Audio\FLAC\J.J. Cale\Rewind\11 - Blue Sunday.wav

Peak level 98.8 %
Track quality 100.0 %
Test CRC 66E19F93
Copy CRC 66E19F93
Accurately ripped (confidence 6) [2ED6093F]
Copy OK

Track 12

Filename D:\Music\EAC Audio\FLAC\J.J. Cale\Rewind\12 - Out of Style.wav

Pre-gap length 0:00:01.09

Peak level 87.9 %
Track quality 100.0 %
Test CRC 6FBD1998
Copy CRC 6FBD1998
Accurately ripped (confidence 6) [8441371C]
Copy OK

Track 13

Filename D:\Music\EAC Audio\FLAC\J.J. Cale\Rewind\13 - Ooh La La.wav

Pre-gap length 0:00:01.36

Peak level 98.8 %
Track quality 100.0 %
Test CRC E4B43F3E
Copy CRC E4B43F3E
Accurately ripped (confidence 6) [01C3FAC9]
Copy OK

Track 14

Filename D:\Music\EAC Audio\FLAC\J.J. Cale\Rewind\14 - All Mama's Children.wav

Peak level 98.8 %
Track quality 100.0 %
Test CRC BCD8E994
Copy CRC BCD8E994
Accurately ripped (confidence 5) [5BF39D03]
Copy OK


All tracks accurately ripped

No errors occurred

End of status report


RS Links:



In case you encounter dead links in any of my posts, please send me a private message !!!!


Password: janwal46

Say thanks, but please, no mirrors and/or direct links in your comments !!!!
Posted By: johhenrik Date: 22 Nov 2021 21:18:10
Thanks for the artwork! :)
Posted By: musician3 Date: 22 Nov 2021 23:18:49
Great.....Thank You
DONATE AVAXHOME:

Donate please!