Loading...
Done
Home > Music > Fileformat > Lossless (wav, ape, flac ...)
Enya - Enya (1987)
Posted By : crazyzone | Date : 22 Feb 2022 18:37:25 | Comments : 1


Enya - Enya (1987)
Genre: Pop | 1CD | FLAC, CUE, LOG | Covers 600 DPI | Size: 190,15 mb
Original Release Date: May 1987 | Publisher: BBC | RapidShare - Uploading - Hotfile

Enya (later re-released as The Celts) is the first album by Irish singer Enya, released in 1987 (see 1987 in music). Enya's first full-album recording, Enya / The Celts features music written and recorded for the soundtrack of the 1986 documentary television series, The Celts.Recorded in 1986, it was not released until 1987 when the series was first broadcast. The album was first released in the UK by the BBC on their own label, and later issued in North America by Atlantic Records. In 1992, Warner Music reissued a remixed and slightly revised version of the album as The Celts. The original version Enya was no longer manufactured. The album contains only a portion of the music Enya composed for the TV series. In 1992, coinciding with the reissue of the album, a previously unreleased track from these sessions, "Eclipse" was released as a b-side on the CD-single for "the Celts". In 2005, another previously unreleased track from the same sessions, a "Spaghetti Western Theme" done in the style of Hugo Montenegro, was released on the CD-single for "Amarantine", in memory of one of the producers of the TV series.
Music from the Celts soundtrack would later be reused for the soundtrack of the video production The Memory of Earth, produced by David Bickley.[1] The song "Boadicea" was also on soundtrack of the 1992 film Sleepwalkers.
[edit] Sampling by other artists
The Fugees sampled "Boadicea" from this album for their song "Ready or Not" on 1996's The Score. Enya had prepared to sue the group for copyright infringement because they had not asked for permission and did not give her credit. After learning that The Fugees were not gangsta rappers, Enya declined to follow through with the suit, but stickers were then placed on The Score giving Enya credit for her work.[2] Mario Winans also sampled "Boadicea" for the melody of the song "I Don't Wanna Know". Producer P. Diddy reportedly personally contacted Enya for permission and gave her 60 percent of the royalties.[3] She also received name billing ("Mario Winans featuring Enya and P. Diddy") for the song, which turned out to be a hit, putting her name #2 on the "Hot R&B/Hip-Hop Singles & Tracks" chart in 2004. The song was also sampled on the answer-back song "You Should Really Know" by The Pirates featuring Shola Ama, Naila Boss & Ishani which peaked at #8 on the UK Singles Chart. "Boadicea" (with "Ready or Not") was also sampled by Nina Sky for their hype single "Time To Go" featuring Angie Martinez, from the mixtape presented by Cipha Sounds.
The title track was used as the theme music for the sports show "Gaelic Games" which aired in the UK on Channel 4 in the 1990s.



EAC LOG
V0.99 prebeta 5 from 4. May 2009
Estrazione file di log EAC da 21. Febbraio 2010, 12:24
Enya / Enya
Unità predefinita: Optiarc DVD RW AD-7240S Adapter: 2 ID: 0
Modalità di lettura: :
: Sì
: No
: No
Correzione offset di lettura: : 48
Sovrascrivi anche nel Lead-In e Lead-Out : No
Riempi sample offset mancanti con silenzio : Sì
Rimuovi blocchi di silezio ad inizio e fine : No
: No
: Interfaccia nativa Win32 per Windows NT & 2000
Formato di destinazione scelto: : Usa Encoder definito da utente
: 1024 kBit/s
: Alta
: No
: C:\Program Files\Exact Audio Copy\FLAC\FLAC.EXE
Opzioni aggiuntive da riga di comando: : -6 -V -T "ARTIST=%a" -T "TITLE=%t" -T "ALBUM=%g" -T "DATE=%y" -T "TRACKNUMBER=%n" -T "GENRE=%m" -T "COMMENT=%e" %s -o %d
| | | |
--------------------------------------------
1 | 0:00.33 | 2:56.10 | 33 | 13242
2 | 2:56.43 | 3:05.42 | 13243 | 27159
3 | 6:02.10 | 4:04.03 | 27160 | 45462
4 | 10:06.13 | 3:16.12 | 45463 | 60174
5 | 13:22.25 | 1:43.45 | 60175 | 67944
6 | 15:05.70 | 2:56.53 | 67945 | 81197
7 | 18:02.48 | 1:21.65 | 81198 | 87337
8 | 19:24.38 | 3:03.37 | 87338 | 101099
9 | 22:28.00 | 1:36.28 | 101100 | 108327
10 | 24:04.28 | 4:24.40 | 108328 | 128167
11 | 28:28.68 | 1:23.67 | 128168 | 134459
12 | 29:52.60 | 3:30.10 | 134460 | 150219
13 | 33:22.70 | 1:23.30 | 150220 | 156474
14 | 34:46.25 | 1:41.30 | 156475 | 164079
15 | 36:27.55 | 2:58.55 | 164080 | 177484
Stato intervallo ed errori
Intervallo selezionato
Nome file C:\Users\User\Desktop\temp\tmp\Enya - Enya.wav
Livello di picco 93.3 %
Qualità intervallo 100.0 %
Copia CRC 7CAFC470
Copia corretta
Non sono stati riscontrati errori
Traccia 1 6) [5C341B4A]
Traccia 2 6) [BE70C18B]
Traccia 3 6) [BC261CD3]
Traccia 4 7) [7923BD2D]
Traccia 5 6) [2B6A4080]
Traccia 6 7) [B0D2E949]
Traccia 7 7) [7B176B0A]
Traccia 8 7) [8CF0D066]
Traccia 9 7) [60BAFE0E]
Traccia 10 7) [F72485F7]
Traccia 11 7) [B05D9347]
Traccia 12 7) [A5862C18]
Traccia 13 7) [5A301BBA]
Traccia 14 7) [1BBE1E70]
Traccia 15 6) [7C98DEE8]
Fine del resoconto di stato






1 The Celts (2:50)
2 Aldebaran (3:05)
3 I Want Tomorrow (4:02)
4 March of the Celts (3:10)
5 Deireadh an Tuath (1:43)
6 The Sun in the Stream (2:55)
7 To Go Beyond, Pt. 1 (1:20)
8 Fairytale (3:03)
9 Epona (1:36)
10 Triad: St. Patrick / Cú Chulainn / Oisín (4:25)
11 Portrait (Out of the Blue) (3:11)
12 Boadicea (3:30)
13 Bard Dance (1:23)
14 Dan y Dwr (1:41)
15 To Go Beyond, Pt. 2 (2:50)



To thank me, download from the first links below:

UPLOADING
>>> Uploading Link <<<
>>> Uploading Link <<<


HOTFILE
>>> Hotfile Link <<<
>>> Hotfile Link <<<


RAPIDSHARE
>>> Rapidshare Link <<<
>>> Rapidshare Link <<<

Password: rides


Links are Interscangeable

NO Mirror Please


Visit My Blog
ADVERTISING » Download fast « ADVERTISING
Posted By: jjeenn Date: 23 Feb 2022 07:04:37
Looking for a long time
thx
Recent searches:
DONATE AVAXHOME:

Donate please!