Loading...
Done
Home > Music > Fileformat > Lossless (wav, ape, flac ...)
THE BUGGLES - Adventures in Modern Recording (1981,reissue 1997)
Posted By : papulya | Date : 26 Feb 2022 21:31:22 | Comments : 2

The Buggles - Adventures in Modern Recording
EAC-APE | 284mb | MP3(245) | 82mb | LOG&CUE&COVERS included
1981,reissue 1997 | PopRock,SynthPop,New Wave | Flavour of Sound(Japan)/TFCK-87577

The Buggles were an English New Wave band formed in 1977, initially consisting of Trevor Horn (bass guitar, guitar, percussion, and vocals), Geoff Downes (percussion and keyboards) and Bruce Woolley.
Adventures in Modern Recording is the second and last studio album by the British synthpop duo The Buggles released in 1981 on Carrere Records. Made one year after their stint as members of Yes, the album contains nine tracks, including a stripped-down version of Yes's "Into the Lens", here entitled, "I Am a Camera". The album contained no hits, and The Buggles broke up during recording, with Geoffrey Downes joining Asia and Trevor Horn becoming a producer. The album as released was mostly a Trevor Horn solo effort, with Bruce Woolley assisting in completing the tracks.
The album was first issued on compact disc in 1992 by Japanese label Jimco Records. In 1997 it was reissued with three bonus tracks, this time on the Japanese Flavour of Sound label. A new reissue was released by Salvo Records on 15 February 2022 (the US import version on the 23rd); it contains 10 bonus tracks


Tреклист
01. Adventures in Modern Recording [0:03:46.00]
02. Beatnik [0:03:38.96]
03. Vermilion Sands [0:06:48.44]
04. I Am a Camera [0:04:56.80]
05. On TV [0:02:48.93]
06. Inner City [0:03:22.69]
07. Lenny [0:03:12.60]
08. Rainbow Warrior [0:05:22.97]
09. Adventures in Modern Recording (Reprise) [0:00:51.62]
10. Fade Away [0:02:36.80]
11. Blue Nylon [0:02:25.90]
12. I Am a Camera (12inch Mix) [0:04:13.29]


XLget.com
АРЕ
Download (one file)

МР3
Download

Rapidshare.com
АРЕ
part1
part2
part3

МР3
part1

DepositFiles.com
АРЕ
part 1
part 2
part 3

MP3
part 1
--
EAC-LOG
Exact Audio Copy V0.99 prebeta 3 from 28. July 2007

EAC extraction logfile from 15. February 2010, 19:23

The Buggles / Adventures in Modern Recording

Used drive : NF3213K RZX279W Adapter: 4 ID: 0

Read mode : Secure
Utilize accurate stream : Yes
Defeat audio cache : Yes
Make use of C2 pointers : No

Read offset correction : 0
Overread into Lead-In and Lead-Out : No
Fill up missing offset samples with silence : Yes
Delete leading and trailing silent blocks : No
Null samples used in CRC calculations : Yes
Used interface : Native Win32 interface for Win NT & 2000

Used output format : Internal WAV Routines
Sample format : 44.100 Hz; 16 Bit; Stereo


TOC of the extracted CD

Track | Start | Length | Start sector | End sector
---------------------------------------------------------
1 | 0:00.00 | 3:46.00 | 0 | 16949
2 | 3:46.00 | 3:38.72 | 16950 | 33371
3 | 7:24.72 | 6:48.33 | 33372 | 64004
4 | 14:13.30 | 4:56.60 | 64005 | 86264
5 | 19:10.15 | 2:48.70 | 86265 | 98934
6 | 21:59.10 | 3:22.52 | 98935 | 114136
7 | 25:21.62 | 3:12.45 | 114137 | 128581
8 | 28:34.32 | 5:22.73 | 128582 | 152804
9 | 33:57.30 | 0:51.47 | 152805 | 156676
10 | 34:49.02 | 2:36.60 | 156677 | 168436
11 | 37:25.62 | 2:25.68 | 168437 | 179379
12 | 39:51.55 | 4:13.22 | 179380 | 198376


Range status and errors

Selected range

Filename C:\Rapida 15\81BugglesAdvInModRec\The Buggles - Adventures in Modern Recording.wav

Peak level 97.9 %
Range quality 100.0 %
Copy CRC 964A91C9
Copy OK

No errors occurred


AccurateRip summary

Track 1 accurately ripped (confidence 10) [138E7766]
Track 2 accurately ripped (confidence 10) [F4E56CA3]
Track 3 accurately ripped (confidence 9) [C952234F]
Track 4 accurately ripped (confidence 10) [070615C1]
Track 5 accurately ripped (confidence 10) [E20E392D]
Track 6 accurately ripped (confidence 9) [0B575223]
Track 7 accurately ripped (confidence 10) [7B8F1BD9]
Track 8 accurately ripped (confidence 9) [37DC5A6B]
Track 9 accurately ripped (confidence 9) [8B22E7AE]
Track 10 accurately ripped (confidence 9) [A25EE732]
Track 11 accurately ripped (confidence 9) [E15A1ED1]
Track 12 accurately ripped (confidence 11) [8D7A8F75]

All tracks accurately ripped

End of status report
ADVERTISING » Download fast « ADVERTISING
Posted By: dirk1 Date: 04 Mar 2022 10:01:25
if you like
the 2010 releasse


EAC wav rip 1411 kbps[tracks]
HQ coverart,log,M3U file included

==============================
1"Adventures in Modern Recording" – 3:46 (Darlow, Horn, Wooley)
2"Beatnik" – 3:38 (Horn)
3"Vermillion Sands" – 6:48 (Downes, Horn)
4"I Am a Camera" – 4:56 (Downes, Horn)
5"On TV" – 2:48 (Horn, Wooley, Rodney Thompson)
6"Inner City" – 3:22 (Darlow, Horn)
7"Lenny" – 3:12 (Downes, Horn)
8"Rainbow Warrior" – 5:22 (Darlow, Horn, John Sinclair)
9"Adventures in Modern Recording (reprise)" – 0:51 (Darlow, Horn, Wooley
10"Fade Away"
11"Blue Nylon"
12"I Am A Camera" (12-inch mix)
13"We Can Fly From Here – part 1" (Demo)
14"Dion"
15"Videotheque"
16"On TV" (Demo)
17"Walking On Glass (original version of Lenny)" (Demo)
18"Riding A Tide"
19"We Can Fly From Here – part 2" (Demo)

=========================
http://rapidshare.com/files/358738967/Baimr.part1.rar.html
http://rapidshare.com/files/358741760/Baimr.part2.rar.html
http://rapidshare.com/files/358744663/Baimr.part3.rar.html
Posted By: nando65 Date: 04 Mar 2022 11:04:20
Thanks from Xyloupoli-Thessaloniki-Greece.
Recent searches:
DONATE AVAXHOME:

Donate please!