Loading...
Done
Home > Music > World | Ethnic
Dagar Brothers - Chant Dhrupad
Posted By : nadeesh | Date : 27 Feb 2022 14:01:54 | Comments : 0

Dagar Brothers - Chant Dhrupad (1989)
Indian Classical | XLD Rip | FLAC (mage+.cue+.log | 231 MB


Tracklist:
01. Raga Bageshri: Alap
02. Raga Bageshri: Dhrut
03. Raga Bhatiyar: Alap-Dhrut


Grandsons of Zakiruddin Khan and Allabande Khan — The Dagar Brothers (from left to right): Ustad Zia Fariduddin Dagar (b1933), Ustad Nasir Zahiruddin Dagar (1932-1994), Ustad Rahim Fahimuddin Dagar (b 1927), Ustad Nasir Aminuddin Dagar (1923-2000), Ustad Zia Mohiuddin Dagar (1929-1990), Ustad Nasir Faiyazuddin Dagar (1934-1989), Ustad Hussain Sayeeduddin Dagar (b1939). The eldest brother of this generation Ustad Nasir Moinuddin Dagar died in 1966 in the prime of his career. This picture was taken in the early 1980`s in Calcutta. Nasir Moinuddin and Nasir Aminuddin Dagar formed a very successful duo and were known as the Senior/Elder Dagar Brothers. Their younger brothers Nasir Zahiruddin and Nasir Faiyazuddin Dagar also performed as a duo and were known as the Junior/Younger Dagar Brothers. These eight grandsons of Zakiruddin and Allabande Khan (Dagar) are credited with keeping the Dhrupad tradition alive during the period after Indian independence when the patronage of the royal courts and a musically cultured and informed aristocracy was gone and classical music in India had to survive on the patronage of the new Indian state run by bureaucrats and politicians.
∼ dhrupad.info


Log XLD

X Lossless Decoder version 20100218 (116.4)

XLD extraction logfile from 2022-02-18 21:04:54 +0100

Dagars Brothers / Chant Dhrupad

Used drive : MATSHITA DVD-R UJ-868 (revision KB19)

Use cdparanoia mode : YES (CDParanoia III 10.2 engine)
Disable audio cache : OK for the drive with cache less than 2750KB
Make use of C2 pointers : NO
Read offset correction : 102
Max retry count : 100

TOC of the extracted CD
Track | Start | Length | Start sector | End sector
---------------------------------------------------------
1 | 00:00:33 | 26:34:52 | 33 | 119634
2 | 26:35:10 | 10:38:15 | 119635 | 167499
3 | 37:13:25 | 15:36:73 | 167500 | 237772

All Tracks
Filename : /Volumes/Temp/XLD/Chant Dhrupad.flac
CRC32 hash : E388A531
CRC32 hash (skip zero) : 75F4104B
Statistics
Read error : 0
Skipped (treated as error) : 0
Edge jitter error (maybe fixed) : 0
Atom jitter error (maybe fixed) : 0
Drift error (maybe fixed) : 0
Dropped bytes error (maybe fixed) : 0
Duplicated bytes error (maybe fixed) : 0
Inconsistency in error sectors : 0

Track 01

Pre-gap length : 00:02:33

CRC32 hash : C6284A89
CRC32 hash (skip zero) : C22C8889
AccurateRip signature : 6451C89E
->Track not present in AccurateRip database.
Statistics
Read error : 0
Skipped (treated as error) : 0
Edge jitter error (maybe fixed) : 0
Atom jitter error (maybe fixed) : 0
Drift error (maybe fixed) : 0
Dropped bytes error (maybe fixed) : 0
Duplicated bytes error (maybe fixed) : 0
Inconsistency in error sectors : 0

Track 02

Pre-gap length : 00:09:12

CRC32 hash : 33410CAA
CRC32 hash (skip zero) : C4176DD8
AccurateRip signature : 610B49CA
->Track not present in AccurateRip database.
Statistics
Read error : 0
Skipped (treated as error) : 0
Edge jitter error (maybe fixed) : 0
Atom jitter error (maybe fixed) : 0
Drift error (maybe fixed) : 0
Dropped bytes error (maybe fixed) : 0
Duplicated bytes error (maybe fixed) : 0
Inconsistency in error sectors : 0

Track 03

Pre-gap length : 00:11:55

CRC32 hash : 8848BB69
CRC32 hash (skip zero) : B6837DDF
AccurateRip signature : 037D0253
->Track not present in AccurateRip database.
Statistics
Read error : 0
Skipped (treated as error) : 0
Edge jitter error (maybe fixed) : 0
Atom jitter error (maybe fixed) : 0
Drift error (maybe fixed) : 0
Dropped bytes error (maybe fixed) : 0
Duplicated bytes error (maybe fixed) : 0
Inconsistency in error sectors : 0

No errors occurred

End of status report

Listen to Samples:
Amazon

Rapidshare:
http://rapidshare.com/files/353822765/Chant_Dhrupad.part1.rar
http://rapidshare.com/files/352546778/Chant_Dhrupad.part2.rar

FileFactory:
http://www.filefactory.com/file/b03d410/n/Chant_Dhrupad.part1.rar
http://www.filefactory.com/file/b02ab32/n/Chant_Dhrupad.part2.rar
ADVERTISING » Download fast « ADVERTISING
No comments for the news
Recent searches: