Loading...
Done
Home > Music > World | Ethnic
Masters of Flamenco Guitar
Posted By : Jazzmen | Date : 25 Dec 2021 13:53:03 | Comments : 3

Masters of Flamenco Guitar
Flamenco | FLAC tracks+CUE+LOG files @ (280 MB) | MP3 @ 320 (145 MB) | Scans | 5% Recovery

Masters of Flamenco Guitar is an excellent collection that showcases four masters of the art: Sabicas, Niño Ricardo, Manolo de Huelva, and Melchor de Marchena. Each guitarist is represented by a selection of live cuts that demonstrates his prodigious talent. Even casual listeners will be able to draw differences between each musician, since each has a unique style -- Sabicas was both a songwriter and a player, Ricardo was often regarded as the finest accompanying guitarist in flamenco, de Huelva specialized in bulerías, and de Marchena was a gypsy accompanist. The beauty of Masters of Flamenco Guitar is how it allows even casual listeners to hear the differences between such styles, and as it does, it offers a good introduction to the entire genre. ~ Leo Stanley, All Music Guide

Track Listing
-------------
[01]. Zapateado [Live] - Sabicas
[02]. Camino de Linares [Live] - Sabicas
[03]. Con un Clavel [Live] - Sabicas
[04]. Salero Gaditano [Live] - Sabicas
[05]. Albacin [Live] - Sabicas
[06]. Serrana Juncal [Live] - Nino Ricardo
[07]. Marisma de Huelva [Live] - Nino Ricardo
[08]. Gitana Gaditana [Live] - Nino Ricardo
[09]. Velez-Malaga [Live] - Nino Ricardo
[10]. Zapateado [Live] - Nino Ricardo
[11]. Llego el Frutero - Manolo de Huelva, Vallego
[12]. Yo No Me Hubiera Perdido - Ruegale a Dios Por Salud
[13]. No Te Hagas Ilusiones - Manolo de Huelva
[14]. Ese Me Gusto Seria - Ni Hermosa Ni Dinero
[15]. Bulerias [Live] - Melchor de Marchena
[16]. Tanquillos de Cadiz [Live] - Melchor de Marchena
[17]. Sevillanas [Live] - Melchor de Marchena
[18]. Peteneras [Live] - Melchor de Marchena
[19]. Serranas [Live] - Melchor de Marchena
[20]. Soleares [Live] - Melchor de Marchena

EAC LOG
Exact Audio Copy V0.99 prebeta 1 from 25. May 2007

خٍ÷¸ٍ EAC îل èçâëه÷هيèè, âûïîëيهييîى 20. ٌهيٍےلًے 2009, 22:56

Various Artists / Masters of Flamenco Guitar

ؤèٌêîâîن: Optiarc DVD RW AD-7173A Adapter: 1 ID: 0

ذهوèى ÷ٍهيèے : ؤîٌٍîâهًيîٌٍü
بٌïîëüçîâàيèه ٍî÷يîمî ïîٍîêà : ؤà
خٍêë‏÷هيèه ê‎ّà àَنèî : ؤà
بٌïîëüçîâàيèه َêàçàٍهëهé C2 : حهٍ

تîًًهêِèے ٌىهùهيèے ïًè ÷ٍهيèè : 48
رïîٌîليîٌٍü ÷èٍàٍü îلëàٌٍè Lead-in è Lead-out : حهٍ
اàïîëيهيèه ïًîïَùهييûُ ٌ‎ىïëîâ ٍèّèيîé : ؤà
سنàëهيèه لëîêîâ ٌ ٍèّèيîé â يà÷àëه è êîيِه : حهٍ
بيٍهًôهéٌ : سٌٍàيîâëهييûé âيهّيèé ASPI-èيٍهًôهéٌ

آûُîنيîé ôîًىàٍ : آيًٍَهييèه WAV-îïهًàِèè
شîًىàٍ ٌ‎ىïëîâ : 44.100 أِ; 16 لèٍ; ٌٍهًهî
رىهùهيèه ïًè ٌوàٍèè : 48


TOC èçâëه÷¸ييîمî CD

زًهê | رٍàًٍ | ؤëèٍهëüيîٌٍü | حà÷àëüيûé ٌهêٍîً | تîيه÷يûé ٌهêٍîً
---------------------------------------------------------------------
1 | 0:00.33 | 4:21.10 | 33 | 19617
2 | 4:21.43 | 3:29.05 | 19618 | 35297
3 | 7:50.48 | 3:03.50 | 35298 | 49072
4 | 10:54.23 | 3:54.05 | 49073 | 66627
5 | 14:48.28 | 4:46.35 | 66628 | 88112
6 | 19:34.63 | 4:17.42 | 88113 | 107429
7 | 23:52.30 | 2:18.40 | 107430 | 117819
8 | 26:10.70 | 2:34.18 | 117820 | 129387
9 | 28:45.13 | 3:04.67 | 129388 | 143254
10 | 31:50.05 | 3:17.40 | 143255 | 158069
11 | 35:07.45 | 2:58.18 | 158070 | 171437
12 | 38:05.63 | 3:14.55 | 171438 | 186042
13 | 41:20.43 | 2:44.22 | 186043 | 198364
14 | 44:04.65 | 3:25.68 | 198365 | 213807
15 | 47:30.58 | 2:22.10 | 213808 | 224467
16 | 49:52.68 | 2:47.10 | 224468 | 237002
17 | 52:40.03 | 2:34.65 | 237003 | 248617
18 | 55:14.68 | 2:24.37 | 248618 | 259454
19 | 57:39.30 | 3:16.58 | 259455 | 274212
20 | 60:56.13 | 2:32.42 | 274213 | 285654


صàًàêٍهًèٌٍèêè نèàïàçîيà èçâëه÷هيèے è ٌîîلùهيèے îل îّèلêàُ

آûلًàييûé نèàïàçîي

بىے ôàéëà E:\ؤîêَىيٍû - ؤèىêà\Music\Instrumental\أèٍàًà\FLAMENCO\Masters of Flamenco Guitar\Various Artists - Masters of Flamenco Guitar.wav

دèêîâûé ًَîâهيü 100.0 %
تà÷هٌٍâî نèàïàçîيà 100.0 %
CRC êîïèè 3A20CE6B
تîïèًîâàيèه... OK


AccurateRip: ٌâîنêà

زًهê 1 يهٍ â لàçه نàييûُ
زًهê 2 يهٍ â لàçه نàييûُ
زًهê 3 يهٍ â لàçه نàييûُ
زًهê 4 يهٍ â لàçه نàييûُ
زًهê 5 يهٍ â لàçه نàييûُ
زًهê 6 يهٍ â لàçه نàييûُ
زًهê 7 يهٍ â لàçه نàييûُ
زًهê 8 يهٍ â لàçه نàييûُ
زًهê 9 يهٍ â لàçه نàييûُ
زًهê 10 يهٍ â لàçه نàييûُ
زًهê 11 يهٍ â لàçه نàييûُ
زًهê 12 يهٍ â لàçه نàييûُ
زًهê 13 يهٍ â لàçه نàييûُ
زًهê 14 يهٍ â لàçه نàييûُ
زًهê 15 يهٍ â لàçه نàييûُ
زًهê 16 يهٍ â لàçه نàييûُ
زًهê 17 يهٍ â لàçه نàييûُ
زًهê 18 يهٍ â لàçه نàييûُ
زًهê 19 يهٍ â لàçه نàييûُ
زًهê 20 يهٍ â لàçه نàييûُ

خّèلîê يه ïًîèçîّëî

تîيهِ îٍ÷¸ٍà


FlameUpload~ Multiple mirrors ¬
RapidShare
MegaUpload
HotFile
FileFactory
DepositFiles

[FLAC] - Part 1 | Part 2 | Part 3

[MP3] - Part 1 | Part 2

Archives have 5% of the information for restoration

OR FileFactory ¬

[FLAC] - Part 1 | Part 2 | Part 3

[MP3] - Part 1 | Part 2

My Blog

Please, NO MIRRORS.
ADVERTISING » Download fast « ADVERTISING
Posted By: stfine Date: 25 Dec 2021 13:54:42
Thank you!
Posted By: pasuljaris Date: 25 Dec 2021 16:59:31
Many thanks!
Posted By: caliche2009 Date: 26 Dec 2021 02:33:52
GREAAAAAAAAT!!! Thanks a lot!
DONATE AVAXHOME:

Donate please!