Loading...
Done
Home > Music > World | Ethnic
Posted By : Jazzmen | Date : 17 Sep 2021 22:48:43 | Comments : 0 |

Djivan Gasparyan - The Soul Of Armenia (2007)
World | EAC | FLAC tracks+CUE+LOG files - (750 MB) | MP3 320 - (370 MB) | Scans

The acknowledged master of the Armenian reed instrument known as the duduk, Djivan Gasparayan was born just outside of the nation's capital city of Yerevan, first picking up the instrument at age six. After joining the Tatool Altounian National Song and Dance Ensemble in 1948, his first professional engagement was as a soloist with the Yerevan Philharmonic Orchestra; Gasparayan later went on tour extensively throughout Europe, Asia, the Middle East, and the United States, and in 1973 was the first musician given the honorary title of People's Artist of Armenia by the nation's government. Gasparayan's commercial breakthrough followed in 1989 when he was featured on Peter Gabriel's soundtrack to the Martin Scorsese film The Last Temptation of Christ; he subsequently contributed to the soundtracks of The Russia House, and the cable TV production Storm and Sorrow, additionally performing with the Kronos Quartet and the Los Angeles Philharmonic Orchestra. His debut solo album, I Will Not Be Sad in This World, appeared on the Opal label in 1989; recordings including Ask Me No Questions, Apricots From Eden, and Moon Shines at Night. In 1998, Gasparayan teamed with virtuoso guitarist Michael Brook for Black Rock; Armenian Fantasies followed two years later. ~ Jason Ankeny, Rovi

Track Listing
-------------
Disc: 1
01. Machkal Es (the Ploughman)
02. Improvisation & Antsa (I'm Gone)
03. Hush My Heart
04. Gisherva Pesh (Like a Dark Night)
05. Tamam Askharh Ptut (I Have Been All Over the World)
06. Red
07. Naked Spirit
08. Ashkharums Akh Chim Kashi (I Will Not Be Sad)
09. Lamentum
10. Tsirani Tsar (the Apricot Tree)
11. Dle Yaman
12. Yerkinkn Ampela ( the Sky is Cloudy)
13. Elephant Pond

Disc: 2
01. Surb Im Sasani (My Holy Sasani)
02. Kapuit Manushak (Blue Violet)
03. Sari Gallin/Sari Aghchick (the Blond Bride)
04. Holy of Holies
05. Nazani (Don't Be So Coy)
06. Take My Heart
07. Menak Champord Em (the Lonely Wanderer)
08. Donus Yolu (the Way Back)
09. Hovvakan Trio: (Shepherd's Song)
10. Armenian Suite
11. Amen Hair Surb (All Fathers Are Holy)

EAC LOG
Exact Audio Copy V0.99 prebeta 5 from 4. May 2009

EAC extraction logfile from 29. December 2009, 10:37

Djivan Gasparyan / The Soul Of Armenia (Disc 1)

Used drive : TEAC CD-W512SB Adapter: 2 ID: 3

Read mode : Secure
Utilize accurate stream : Yes
Defeat audio cache : Yes
Make use of C2 pointers : No

Read offset correction : 685
Overread into Lead-In and Lead-Out : No
Fill up missing offset samples with silence : Yes
Delete leading and trailing silent blocks : No
Null samples used in CRC calculations : Yes
Used interface : Installed external ASPI interface
Gap handling : Appended to previous track

Used output format : User Defined Encoder
Selected bitrate : 128 kBit/s
Quality : High
Add ID3 tag : No
Command line compressor : C:\Program Files\Exact Audio Copy\Flac\flac.exe
Additional command line options : -8 -T "artist=%a" -T "title=%t" -T "album=%g" -T "date=%y" -T "tracknumber=%n" -T "genre=%m" %s


TOC of the extracted CD

Track | Start | Length | Start sector | End sector
---------------------------------------------------------
1 | 0:00.00 | 4:49.68 | 0 | 21742
2 | 4:49.68 | 9:46.11 | 21743 | 65703
3 | 14:36.04 | 5:43.33 | 65704 | 91461
4 | 20:19.37 | 6:23.14 | 91462 | 120200
5 | 26:42.51 | 4:04.50 | 120201 | 138550
6 | 30:47.26 | 4:44.23 | 138551 | 159873
7 | 35:31.49 | 4:42.74 | 159874 | 181097
8 | 40:14.48 | 6:17.26 | 181098 | 209398
9 | 46:31.74 | 3:41.26 | 209399 | 225999
10 | 50:13.25 | 5:04.09 | 226000 | 248808
11 | 55:17.34 | 2:51.27 | 248809 | 261660
12 | 58:08.61 | 5:58.32 | 261661 | 288542
13 | 64:07.18 | 4:39.03 | 288543 | 309470


Track 1

Filename D:\W\01 - Machkal Es (The Ploghman).wav

Pre-gap length 0:00:02.00

Peak level 100.0 %
Track quality 99.9 %
Test CRC 04B7EC83
Copy CRC 04B7EC83
Track not present in AccurateRip database
Copy OK

Track 2

Filename D:\W\02 - Improvisation & Ansta Gnasti (I'm Gone).wav

Pre-gap length 0:00:03.62

Peak level 96.5 %
Track quality 100.0 %
Test CRC C5F9D1D6
Copy CRC C5F9D1D6
Track not present in AccurateRip database
Copy OK

Track 3

Filename D:\W\03 - Hush My Heart.wav

Pre-gap length 0:00:05.04

Peak level 100.0 %
Track quality 100.0 %
Test CRC 2BD7FC30
Copy CRC 2BD7FC30
Track not present in AccurateRip database
Copy OK

Track 4

Filename D:\W\04 - Gisherva Pesh (Like A Dark Night).wav

Pre-gap length 0:00:03.58

Peak level 100.0 %
Track quality 99.9 %
Test CRC 76CE6367
Copy CRC 76CE6367
Track not present in AccurateRip database
Copy OK

Track 5

Filename D:\W\05 - Tamam Askharh Ptut Eka (I Have Been All Over The World).wav

Pre-gap length 0:00:02.77

Peak level 100.0 %
Track quality 100.0 %
Test CRC C3C72B38
Copy CRC C3C72B38
Track not present in AccurateRip database
Copy OK

Track 6

Filename D:\W\06 - Red.wav

Pre-gap length 0:00:03.74

Peak level 100.0 %
Track quality 100.0 %
Test CRC 047B8739
Copy CRC 047B8739
Track not present in AccurateRip database
Copy OK

Track 7

Filename D:\W\07 - Naked Spirit.wav

Pre-gap length 0:00:03.93

Peak level 99.9 %
Track quality 100.0 %
Test CRC 80773DE0
Copy CRC 80773DE0
Track not present in AccurateRip database
Copy OK

Track 8

Filename D:\W\08 - Ashkharums Akh Chim Kashi (I Will Not Be Sad).wav

Pre-gap length 0:00:04.14

Peak level 99.0 %
Track quality 100.0 %
Test CRC 5FFC9A9C
Copy CRC 5FFC9A9C
Track not present in AccurateRip database
Copy OK

Track 9

Filename D:\W\09 - Lamentum.wav

Pre-gap length 0:00:03.97

Peak level 99.7 %
Track quality 100.0 %
Test CRC A00E3775
Copy CRC A00E3775
Track not present in AccurateRip database
Copy OK

Track 10

Filename D:\W\10 - Komitas-Suite Trisani Tsar (The Apricort Tree).wav

Pre-gap length 0:00:05.82

Peak level 100.0 %
Track quality 100.0 %
Test CRC 790B8A9C
Copy CRC 790B8A9C
Track not present in AccurateRip database
Copy OK

Track 11

Filename D:\W\11 - Komitas-Suite Dle Yaman.wav

Pre-gap length 0:00:02.38

Peak level 100.0 %
Track quality 99.9 %
Test CRC 0CE1485D
Copy CRC 0CE1485D
Track not present in AccurateRip database
Copy OK

Track 12

Filename D:\W\12 - Komitas-Suite Yerkinkin Ampela (The Sky Is Cloudy).wav

Pre-gap length 0:00:00.93

Peak level 100.0 %
Track quality 100.0 %
Test CRC 744B0C8D
Copy CRC 744B0C8D
Track not present in AccurateRip database
Copy OK

Track 13

Filename D:\W\13 - Elephant Pond.wav

Pre-gap length 0:00:04.89

Peak level 100.0 %
Track quality 100.0 %
Test CRC 81BEF7BF
Copy CRC 81BEF7BF
Track not present in AccurateRip database
Copy OK


None of the tracks are present in the AccurateRip database

No errors occurred

End of status report

Download: (Links are interchangeable)

Archives have 3% of the information for restoration

FlameUpload - Multiple mirrors ¬
FLAC
CD1
http://flameupload.com/files/S2UTAWTG/DGTSOARM1.part1.rar
http://flameupload.com/files/0EVCRZV6/DGTSOARM1.part2.rar
http://flameupload.com/files/GGZJKBHC/DGTSOARM1.part3.rar
CD2
http://flameupload.com/files/1VRO2NWE/DGTSOARM2.part1.rar
http://flameupload.com/files/1NWQOID3/DGTSOARM2.part2.rar
http://flameupload.com/files/0TOTPJTP/DGTSOARM2.part3.rar
Scans
http://flameupload.com/files/VD61QUFF/DGTSOARMS.rar
MP3
http://flameupload.com/files/AASIEFV4/DGTSOARMMP.part1.rar
http://flameupload.com/files/GWBRQ440/DGTSOARMMP.part2.rar
http://flameupload.com/files/SJGLDFMJ/DGTSOARMMP.part3.rar

Fileserve:
FLAC
CD1
http://www.fileserve.com/file/7gJjpeM
http://www.fileserve.com/file/ncN7Mc8
http://www.fileserve.com/file/kqsFPyM
CD2
http://www.fileserve.com/file/3be7GVZ
http://www.fileserve.com/file/2peP4Bg
http://www.fileserve.com/file/qFSunF7
Scans
http://www.fileserve.com/file/vQKB4kC

MP3
http://www.fileserve.com/file/6YeQJux
http://www.fileserve.com/file/RhjS7vV
http://www.fileserve.com/file/dsyqwYQ

ADVERTISING » High Speed Download « ADVERTISING




No comments for the news
Recent searches: