Loading...
Done
Home > Music > World | Ethnic
Cafe Arabia - Anthology of chillout classics
Posted By : Jazzmen | Date : 07 Jan 2022 03:03:40 | Comments : 2

Cafe Arabia - Anthology of chillout classics
World | APE+CUE+LOG files @ (1050 MB) | MP3 @ 320 (480 MB) | Scans | 5% Recovery

Cafe Arabia, Vol. 1-3 "ANTHOLOGY OF CHILLOUT CLASSICS" ABDEL HALIM HAFEZ FAIRUZ MOHAMMED ABDU LAYLA MOURAD FARID EL ATRACHE WARDA TALAL EL MADDAH NAGAT MOHAMED ABDEL WAHAB FAYZA AHMED WADI ELSAFI SABAH

CD1: Cafe Arabia 1. Anthology Of Chillout Classics

[01]. Habbeytak Fairuz
[02]. El Hawa Hawaya Abdel Halim Hafez
[03]. Walla Zaman Warda
[04]. Hallet Ya Rabee Mohammed Abdel Wahab
[05]. Khodni Ma'ak Shadia
[06]. El Ward Gameil Sayed Makawi
[07]. Rah El Hawa Layla Murad
[08]. Asmar Aabar Mohammed Abdo
[09]. Mahla Eishat El Fallah Najat

CD2: Cafe Arabia 2. Anthology Of Chillout Classics

[01]. Alachan Malich Gheirak Farid El Atrache
[02]. Dak El Hawa Fairuz
[03]. Al Toba Abdel Halim Hafez
[04]. Tab Wana Maly Warda
[05]. Intizari Taal Talal El Maddah
[06]. Etmakhtary Ya Kheil Layla Mourad
[07]. Weili Laou Yedroun Wadih El Safi
[08]. Balash Tebosny Mohamed Abdel Wahab
[09]. Ya Msafer Wahdak Najat
[10]. Habibi Yess'ed Aw'atoh Sayed Makkawi

CD3: Cafe Arabia 3. Anthology Of Chillout Classics

[01]. Magadir Warda
[02]. Echtaktellak Farid El Atrache
[03]. Ya Dala Dallaa Sabah
[04]. Allah Yijazi Talal El Maddah
[05]. Chahreyn Ou Chouayya Fayza Ahmed
[06]. Mafeesh Foulous Nasri Shams Eldine
[07]. Ghannili Chouaya Issam Raggi
[08]. Ya Hala Bildayf Samira Tawfic
[09]. Hamdilla Al Salanna Nagat
[10]. Idi Ala Khadi Wadih El Safi 11. Kan Ya Makan Fairuz

EAC LOG
Exact Audio Copy V0.99 prebeta 3 from 28. July 2007

خٍ÷¸ٍ EAC îل èçâëه÷هيèè, âûïîëيهييîى 2. ےيâàًے 2008, 16:37

Various / Café Arabia

ؤèٌêîâîن: Optiarc DVD RW AD-7173A Adapter: 0 ID: 0

ذهوèى ÷ٍهيèے : ؤîٌٍîâهًيîٌٍü
بٌïîëüçîâàيèه ٍî÷يîمî ïîٍîêà : ؤà
خٍêë‏÷هيèه ê‎ّà àَنèî : ؤà
بٌïîëüçîâàيèه َêàçàٍهëهé C2 : ؤà

تîًًهêِèے ٌىهùهيèے ïًè ÷ٍهيèè : 48
رïîٌîليîٌٍü ÷èٍàٍü îلëàٌٍè Lead-in è Lead-out : حهٍ
اàïîëيهيèه ïًîïَùهييûُ ٌ‎ىïëîâ ٍèّèيîé : ؤà
سنàëهيèه لëîêîâ ٌ ٍèّèيîé â يà÷àëه è êîيِه : حهٍ
دًè âû÷èٌëهيèےُ CRC èٌïîëüçîâàëèٌü يَëهâûه ٌ‎ىïëû : حهٍ
بيٍهًôهéٌ : آًٌٍîهييûé Win32-èيٍهًôهéٌ نëے Win NT/2000

آûُîنيîé ôîًىàٍ : آيًٍَهييèه WAV-îïهًàِèè
شîًىàٍ ٌ‎ىïëîâ : 44.100 أِ; 16 لèٍ; ٌٍهًهî


TOC èçâëه÷¸ييîمî CD

زًهê | رٍàًٍ | ؤëèٍهëüيîٌٍü | حà÷àëüيûé ٌهêٍîً | تîيه÷يûé ٌهêٍîً
---------------------------------------------------------------------
1 | 0:00.00 | 3:23.60 | 0 | 15284
2 | 3:23.60 | 7:34.26 | 15285 | 49360
3 | 10:58.11 | 7:40.06 | 49361 | 83866
4 | 18:38.17 | 5:25.12 | 83867 | 108253
5 | 24:03.29 | 5:32.74 | 108254 | 133227
6 | 29:36.28 | 13:25.71 | 133228 | 193673
7 | 43:02.24 | 4:34.59 | 193674 | 214282
8 | 47:37.08 | 10:04.42 | 214283 | 259624
9 | 57:41.50 | 10:12.21 | 259625 | 305545


صàًàêٍهًèٌٍèêè نèàïàçîيà èçâëه÷هيèے è ٌîîلùهيèے îل îّèلêàُ

آûلًàييûé نèàïàçîي

بىے ôàéëà E:\torrents\Upload\Cafe_Arabia\Various - Cafe Arabia.wav

دèêîâûé ًَîâهيü 100.0 %
تà÷هٌٍâî نèàïàçîيà 100.0 %
CRC êîïèè 52B6210B
تîïèًîâàيèه... OK

خّèلîê يه ïًîèçîّëî


AccurateRip: ٌâîنêà

زًهê 1 يهٍ â لàçه نàييûُ
زًهê 2 يهٍ â لàçه نàييûُ
زًهê 3 يهٍ â لàçه نàييûُ
زًهê 4 يهٍ â لàçه نàييûُ
زًهê 5 يهٍ â لàçه نàييûُ
زًهê 6 يهٍ â لàçه نàييûُ
زًهê 7 يهٍ â لàçه نàييûُ
زًهê 8 يهٍ â لàçه نàييûُ
زًهê 9 يهٍ â لàçه نàييûُ

حè îنيîمî ًٍهêà يهٍ â لàçه AccurateRip

تîيهِ îٍ÷¸ٍà


FlameUpload~ Multiple mirrors ¬
RapidShare
MegaUpload
HotFile
FileFactory
DepositFiles

[APE] - 1 | 2 | 3 | 4 | 5 | 6 | 7 | 8 | 9

[MP3] - 1 | 2 | 3 | 4

Archives have 5% of the information for restoration

OR FileFactory ¬

[APE] - 1 | 2 | 3 | 4 | 5 | 6 | 7 | 8 | 9

[MP3] - 1 | 2 | 3 | 4

My Blog
ADVERTISING » Download fast « ADVERTISING
Posted By: johhenrik Date: 07 Jan 2022 06:58:38
Thanks for this one in lossless. I like these chillout CDs :)
Posted By: FY09 Date: 11 Jan 2022 01:53:39
Syukron(Thank you very much indeed).
DONATE AVAXHOME:

Donate please!