Loading...
Done
Home > Music > +Electronica > Techno
Posted By : ajjiger | Date : 17 Oct 2021 23:52:47 | Comments : 1 |

Various Artists - White Noise
EAC | APE-CUE-LOG | MP3 320 kbit/s CBR | 70:11 Min | 458.77 Mb | 168.73 Mb | Covers
Label: City Of Angels (USA) | Catalog#: COA 70015-2 | Type: Various Artists, Compilation
Original Release Date: October 1997 | Styles: Electronic, Breakbeat, Dub Techno, Big Beat, Electro

~ Track Listings ~
01. √úberzone - The Freakz
02. Mekon - Welcome to Tackletown (Propellerheads Remix)
03. The Crystal Method - Trip Like I Do
04. Midfield General - Devil in Sports Casual
(Fatboy Slim 'Does My Beat Look This Big' Mix)
05. Dub Pistols - Westway
06. Hardknox - Psychopath
07. Simply Jeff - My Planet
08. Monkey Mafia - Lion in the Hall
09. The Wiseguys - A Better World (Parts 1 & 2)
10. Witchdockta - Crack Attack

EAC log
Exact Audio Copy V0.99 prebeta 5 from 4. May 2009

EAC extraction logfile from 16. October 2010, 18:04

Various Artists / White Noise

Used drive : SONY CD-RW CRX230ED Adapter: 0 ID: 1

Read mode : Secure
Utilize accurate stream : Yes
Defeat audio cache : Yes
Make use of C2 pointers : No

Read offset correction : 6
Overread into Lead-In and Lead-Out : No
Fill up missing offset samples with silence : Yes
Delete leading and trailing silent blocks : No
Null samples used in CRC calculations : Yes
Used interface : Installed external ASPI interface

Used output format : User Defined Encoder
Selected bitrate : 1024 kBit/s
Quality : High
Add ID3 tag : No
Command line compressor : C:\Program Files\Exact Audio Copy\wapet.exe
Additional command line options : %d -t "[email protected]*.cue" "C:\Program Files\Monkey's Audio\MAC.exe" %s %d -c4000

TOC of the extracted CD

Track | Start | Length | Start sector | End sector
---------------------------------------------------------
1 | 0:00.00 | 6:47.12 | 0 | 30536
2 | 6:47.12 | 6:00.28 | 30537 | 57564
3 | 12:47.40 | 7:35.52 | 57565 | 91741
4 | 20:23.17 | 5:31.40 | 91742 | 116606
5 | 25:54.57 | 6:47.65 | 116607 | 147196
6 | 32:42.47 | 6:44.58 | 147197 | 177554
7 | 39:27.30 | 11:04.37 | 177555 | 227391
8 | 50:31.67 | 6:21.70 | 227392 | 256036
9 | 56:53.62 | 7:18.68 | 256037 | 288954
10 | 64:12.55 | 5:58.27 | 288955 | 315831

Range status and errors

Selected range

Filename J:\u p\Various Artists - White Noise.wav

Peak level 99.9 %
Range quality 100.0 %
Test CRC 124E3500
Copy CRC 124E3500
Copy OK

No errors occurred

AccurateRip summary

Track 1 cannot be verified as accurate (confidence 2) [FBB1DE0F], AccurateRip returned [7CF7FD15]
Track 2 cannot be verified as accurate (confidence 3) [1E203051], AccurateRip returned [0449B289]
Track 3 cannot be verified as accurate (confidence 3) [33175442], AccurateRip returned [AE890B1B]
Track 4 cannot be verified as accurate (confidence 3) [48D4C264], AccurateRip returned [F5DC818D]
Track 5 cannot be verified as accurate (confidence 3) [E92255AC], AccurateRip returned [0DBBAEDE]
Track 6 cannot be verified as accurate (confidence 3) [40FEF252], AccurateRip returned [B14247C9]
Track 7 cannot be verified as accurate (confidence 3) [8CDCDB45], AccurateRip returned [D4861163]
Track 8 cannot be verified as accurate (confidence 3) [8CB8982A], AccurateRip returned [143689CA]
Track 9 cannot be verified as accurate (confidence 3) [57A8987C], AccurateRip returned [F8FCE2EF]
Track 10 cannot be verified as accurate (confidence 3) [C1818374], AccurateRip returned [65A48B1F]

No tracks could be verified as accurate
You may have a different pressing from the one(s) in the database

End of status report

filesonic.com
part 1 | part 2 || mp3
fileserve.com
part 1 | part 2 || mp3
pass: ajiger


No Mirrors
ADVERTISING » High Speed Download « ADVERTISING




Posted By: ra1apm Date: 18 Oct 2021 01:47:44
Interesante, gracias.
Recent searches: