Loading...
Done
Home > Music > +Electronica > Dance
Eskimo Mix CDs (4 Volumes) (2000-2003)
Posted By : mook45 | Date : 27 Feb 2022 02:34:30 | Comments : 0

Eskimo Mix CDs (4 Volumes) (2000-2003)
EAC | FLAC IMG,CUE+LOG = 505/500/465/464MB | [email protected] = 177/173/169/161MB | 400 dpi Scans
Dance Mix | Label: Eskimo | RS


Four volumes of eclectic mixes for the Eskimo label from the Glimmer Twins. If you're into the funkier and more left-field areas of dance music you'll know from these guys' reputation or see from the track listing that this is as good as it gets.



Volume One

1 33 1/3 Queen - Disco 4 4:29
2 Daryl Hall & John Oates - I Can't Go For That (No Can Do) (12" Mix) 2:46
3 De La Soul - Say No Go (Bonus Beats) 2:13
4 KC Flight - Planet E (Acid Drop Mix) 6:01
5 Mission Control - Outta Limits 4:45
6 Instant House - Awade (Ah-Way-Day) (Stan's Friendly Mix) 5:49
7 Doug Willis - Get Your Own 5:10
8 Mount Rushmore - You Better (Es Cavalett Mix) 5:53
9 Ray Mang & John Stitch - STP 7:02
10 War - Flying Machine 7:22
11 Harry Thumann - Underwater (Part 1) 5:15
12 T.E.T. - Disco Drunkard 2:00
13 Fatback Band* - Njia Walk (Street Walk) 4:04
14 Liquid Liquid - Scraper (Psychonauts Remix) 4:14
15 Martine Girault - Revival (Original Mix) 4:36

LOG
Exact Audio Copy V0.99 prebeta 5 from 4. May 2009

EAC extraction logfile from 20. February 2010, 20:10

Various / Eskimo Volume 1

Used drive : HP DVD Writer 1040r Adapter: 1 ID: 0

Read mode : Secure
Utilize accurate stream : Yes
Defeat audio cache : Yes
Make use of C2 pointers : No

Read offset correction : 6
Overread into Lead-In and Lead-Out : No
Fill up missing offset samples with silence : Yes
Delete leading and trailing silent blocks : No
Null samples used in CRC calculations : Yes
Used interface : Native Win32 interface for Win NT & 2000

Used output format : User Defined Encoder
Selected bitrate : 1024 kBit/s
Quality : High
Add ID3 tag : No
Command line compressor : C:\Program Files\Exact Audio Copy\FLAC\FLAC.EXE
Additional command line options : -5 -V -T "ARTIST=%a" -T "TITLE=%t" -T "ALBUM=%g" -T "DATE=%y" -T "TRACKNUMBER=%n" -T "GENRE=%m" -T "COMMENT=EAC Flac 1.1.2 -5" %s


TOC of the extracted CD

Track | Start | Length | Start sector | End sector
---------------------------------------------------------
1 | 0:00.00 | 4:29.50 | 0 | 20224
2 | 4:29.50 | 2:46.23 | 20225 | 32697
3 | 7:15.73 | 2:13.22 | 32698 | 42694
4 | 9:29.20 | 6:01.20 | 42695 | 69789
5 | 15:30.40 | 4:45.34 | 69790 | 91198
6 | 20:15.74 | 5:49.27 | 91199 | 117400
7 | 26:05.26 | 5:10.17 | 117401 | 140667
8 | 31:15.43 | 5:53.22 | 140668 | 167164
9 | 37:08.65 | 7:02.35 | 167165 | 198849
10 | 44:11.25 | 7:22.32 | 198850 | 232031
11 | 51:33.57 | 5:15.55 | 232032 | 255711
12 | 56:49.37 | 2:00.68 | 255712 | 264779
13 | 58:50.30 | 4:04.70 | 264780 | 283149
14 | 62:55.25 | 4:14.60 | 283150 | 302259
15 | 67:10.10 | 4:36.74 | 302260 | 323033


Range status and errors

Selected range

Filename C:\Users\Mike3\Desktop\Eskimo Volume 1 (Flac)\Various - Eskimo Volume 1.wav

Peak level 95.5 %
Range quality 100.0 %
Copy CRC 52187AF9
Copy OK

No errors occurred


AccurateRip summary

Track 1 accurately ripped (confidence 1) [2F987291]
Track 2 accurately ripped (confidence 1) [44D7B806]
Track 3 accurately ripped (confidence 1) [4286DEE7]
Track 4 accurately ripped (confidence 1) [663421B8]
Track 5 accurately ripped (confidence 1) [46FFE075]
Track 6 accurately ripped (confidence 1) [6A2E541C]
Track 7 accurately ripped (confidence 1) [EB4B2B7B]
Track 8 accurately ripped (confidence 1) [13254A92]
Track 9 accurately ripped (confidence 1) [F0841DD0]
Track 10 accurately ripped (confidence 1) [22FEAB70]
Track 11 accurately ripped (confidence 1) [7FD74775]
Track 12 accurately ripped (confidence 1) [8048C0DA]
Track 13 accurately ripped (confidence 1) [38FEC261]
Track 14 accurately ripped (confidence 1) [86743FE5]
Track 15 accurately ripped (confidence 1) [096F712C]

All tracks accurately ripped

End of status report


Files
Lame 320 Kbps = 177MB
Flac 958 Kbps = 505MB



Volume Two

1 E.P.M.D. - It's Time To Party 4:03
2 MFSB - Love Is The Message (Danny Krivit Re-edit) 3:15
3 Vernon Burch - Get Up (Re-edit) 3:00
4 West Phillips - (I'm Just A) Sucker For A Pretty Face 4:59
5 M1 - Electonic Funk (Kaje Remix) 4:30
6 Laidback - Bakerman (Extended Remix) 3:11
7 Lil Louis & The World - I Called U (The Story Continues) 5:52
8 Liberty City - If You Really Love Someone 1:55
9 Eric Kupper Presents K-Scope - Latin Blues Part. 1 7:58
10 Ray Barretto - Acid 4:58
11 James Brown - Payback 3:18
12 Bill Withers - You Got The Stuff 2:05
13 Stretch - Why Did You Do It 5:21
14 Max Berlin - Elle & Moi 7:24
15 Carlos Peron - Breakin' In 4:21
16 Lambchop With Zero 7 - Up With People (Zero 7 Dub Mix) 4:52

LOG
Exact Audio Copy V0.99 prebeta 5 from 4. May 2009

EAC extraction logfile from 20. February 2010, 20:44

Various / Eskimo Volume 2

Used drive : HP DVD Writer 1040r Adapter: 1 ID: 0

Read mode : Secure
Utilize accurate stream : Yes
Defeat audio cache : Yes
Make use of C2 pointers : No

Read offset correction : 6
Overread into Lead-In and Lead-Out : No
Fill up missing offset samples with silence : Yes
Delete leading and trailing silent blocks : No
Null samples used in CRC calculations : Yes
Used interface : Native Win32 interface for Win NT & 2000

Used output format : User Defined Encoder
Selected bitrate : 1024 kBit/s
Quality : High
Add ID3 tag : No
Command line compressor : C:\Program Files\Exact Audio Copy\FLAC\FLAC.EXE
Additional command line options : -5 -V -T "ARTIST=%a" -T "TITLE=%t" -T "ALBUM=%g" -T "DATE=%y" -T "TRACKNUMBER=%n" -T "GENRE=%m" -T "COMMENT=EAC Flac 1.1.2 -5" %s


TOC of the extracted CD

Track | Start | Length | Start sector | End sector
---------------------------------------------------------
1 | 0:00.00 | 4:01.50 | 0 | 18124
2 | 4:01.50 | 3:16.24 | 18125 | 32848
3 | 7:17.74 | 3:19.34 | 32849 | 47807
4 | 10:37.33 | 4:39.31 | 47808 | 68763
5 | 15:16.64 | 4:31.23 | 68764 | 89111
6 | 19:48.12 | 3:11.29 | 89112 | 103465
7 | 22:59.41 | 5:20.69 | 103466 | 127534
8 | 28:20.35 | 2:27.51 | 127535 | 138610
9 | 30:48.11 | 7:58.48 | 138611 | 174508
10 | 38:46.59 | 4:58.22 | 174509 | 196880
11 | 43:45.06 | 3:18.73 | 196881 | 211803
12 | 47:04.04 | 2:05.20 | 211804 | 221198
13 | 49:09.24 | 5:22.12 | 221199 | 245360
14 | 54:31.36 | 7:24.59 | 245361 | 278719
15 | 61:56.20 | 4:21.49 | 278720 | 298343
16 | 66:17.69 | 4:50.46 | 298344 | 320139


Range status and errors

Selected range

Filename C:\Users\Mike3\Desktop\Eskimo Volume 2 (Flac)\Various - Eskimo Volume 2.wav

Peak level 99.9 %
Range quality 100.0 %
Copy CRC FD0EA556
Copy OK

No errors occurred


AccurateRip summary

Track 1 cannot be verified as accurate (confidence 1) [59062DED], AccurateRip returned [C2A30645]
Track 2 cannot be verified as accurate (confidence 1) [C8D812A7], AccurateRip returned [75648F0E]
Track 3 cannot be verified as accurate (confidence 1) [62F00AED], AccurateRip returned [C062526D]
Track 4 cannot be verified as accurate (confidence 1) [75FAA331], AccurateRip returned [4FB338BA]
Track 5 cannot be verified as accurate (confidence 1) [69B95D6B], AccurateRip returned [820DAD2B]
Track 6 cannot be verified as accurate (confidence 1) [A21EEA36], AccurateRip returned [4371E23A]
Track 7 cannot be verified as accurate (confidence 1) [DB5CFF0E], AccurateRip returned [BA09B72C]
Track 8 cannot be verified as accurate (confidence 1) [B17854B1], AccurateRip returned [98485AA0]
Track 9 cannot be verified as accurate (confidence 1) [81FA2841], AccurateRip returned [4D647D03]
Track 10 cannot be verified as accurate (confidence 1) [5599B91D], AccurateRip returned [C0E0ABBF]
Track 11 cannot be verified as accurate (confidence 1) [7B2BC088], AccurateRip returned [87DA2A0A]
Track 12 cannot be verified as accurate (confidence 1) [629A08C3], AccurateRip returned [DD9691A6]
Track 13 cannot be verified as accurate (confidence 1) [6C264421], AccurateRip returned [D53252B3]
Track 14 cannot be verified as accurate (confidence 1) [4476E3A1], AccurateRip returned [ACFB1266]
Track 15 cannot be verified as accurate (confidence 1) [AC2460B5], AccurateRip returned [AC00DBD0]
Track 16 cannot be verified as accurate (confidence 1) [5582B232], AccurateRip returned [4B547E3A]

No tracks could be verified as accurate
You may have a different pressing from the one(s) in the database

End of status report


Files
Lame 320 Kbps = 173MB
Flac 964 Kbps = 500MB



Volume Three

1 Frankie Knuckles - Your Love 5:07
2 Luomo - Tessio 4:55
3 Dubtribe Soundsystem - Do It Now 6:59
4 Cassioware - Hot Baby The Go-Go Dancer (Hot Body Mix) 3:47
5 Julien Jabre - Voodance 7:47
6 Erotic Drum Band - Jerky Rhythm 2:23
7 BB Boogie - Tell Him (Booty Bounce Part II) 4:10
8 Johnny Harris - Odyssey (Pt. 2) 4:21
9 Peter Godwin - French Emotions 2:31
10 B-52's - Deep Sleep 3:27
11 Tulio De Piscopo - Stop Bajon (Primavera) 6:44
12 William DeVaughn - Be Thankful For What You've Got 3:35
13 Love Unlimited Orchestra - Midnight Groove 5:32
14 Ramsey Lewis - Sun Goddess 8:25

LOG
Exact Audio Copy V0.99 prebeta 5 from 4. May 2009

EAC extraction logfile from 20. February 2010, 22:08

Eskimo / Volume Volume III

Used drive : HP DVD Writer 1040r Adapter: 1 ID: 0

Read mode : Secure
Utilize accurate stream : Yes
Defeat audio cache : Yes
Make use of C2 pointers : No

Read offset correction : 6
Overread into Lead-In and Lead-Out : No
Fill up missing offset samples with silence : Yes
Delete leading and trailing silent blocks : No
Null samples used in CRC calculations : Yes
Used interface : Native Win32 interface for Win NT & 2000

Used output format : User Defined Encoder
Selected bitrate : 1024 kBit/s
Quality : High
Add ID3 tag : No
Command line compressor : C:\Program Files\Exact Audio Copy\FLAC\FLAC.EXE
Additional command line options : -5 -V -T "ARTIST=%a" -T "TITLE=%t" -T "ALBUM=%g" -T "DATE=%y" -T "TRACKNUMBER=%n" -T "GENRE=%m" -T "COMMENT=EAC Flac 1.1.2 -5" %s


TOC of the extracted CD

Track | Start | Length | Start sector | End sector
---------------------------------------------------------
1 | 0:00.00 | 5:05.13 | 0 | 22887
2 | 5:05.13 | 4:55.51 | 22888 | 45063
3 | 10:00.64 | 6:59.32 | 45064 | 76520
4 | 17:00.21 | 3:46.62 | 76521 | 93532
5 | 20:47.08 | 7:47.19 | 93533 | 128576
6 | 28:34.27 | 2:23.35 | 128577 | 139336
7 | 30:57.62 | 5:03.65 | 139337 | 162126
8 | 36:01.52 | 4:21.02 | 162127 | 181703
9 | 40:22.54 | 2:31.31 | 181704 | 193059
10 | 42:54.10 | 3:27.26 | 193060 | 208610
11 | 46:21.36 | 6:44.11 | 208611 | 238921
12 | 53:05.47 | 3:35.12 | 238922 | 255058
13 | 56:40.59 | 5:32.37 | 255059 | 279995
14 | 62:13.21 | 8:25.57 | 279996 | 317927
15 | 73:11.03 | 0:04.27 | 329328 | 329654


Range status and errors

Selected range

Filename C:\Users\Mike3\Desktop\Eskimo Volume 3 (Flac)\Eskimo - Volume Volume III.wav

Peak level 100.0 %
Range quality 100.0 %
Copy CRC 63ABFCA6
Copy OK

No errors occurred


AccurateRip summary

Track 1 accurately ripped (confidence 2) [DF8AFCB8]
Track 2 accurately ripped (confidence 2) [45CA04D9]
Track 3 accurately ripped (confidence 2) [BB636EFB]
Track 4 accurately ripped (confidence 2) [20FB4021]
Track 5 accurately ripped (confidence 2) [0A82EC3B]
Track 6 accurately ripped (confidence 2) [A30B1A07]
Track 7 accurately ripped (confidence 2) [FE427B65]
Track 8 accurately ripped (confidence 2) [9974EA6D]
Track 9 accurately ripped (confidence 2) [9D250D9E]
Track 10 accurately ripped (confidence 2) [E10021A1]
Track 11 accurately ripped (confidence 2) [D0E46A4A]
Track 12 accurately ripped (confidence 2) [B36140BC]
Track 13 accurately ripped (confidence 2) [4004DCBB]
Track 14 accurately ripped (confidence 2) [69416A64]

All tracks accurately ripped

End of status report


Files
Lame 320 Kbps = 169MB
Flac 906 Kbps = 465MB



Volume Four

1 Community Recordings - Magic Circle (Mellow Mountain Dub) 6:17
2 Sydney Youngblood - If Only I Could (Instrumental) 2:56
3 Groove Committee - Just Play The Music 4:25
4 Nu Spirit Helsinki Feat. Kasio - Take It Back 4:16
5 L.U.P.O. Feat. Cathy* - Keep It Up 3:10
6 Zero dB - Come Party 4:30
7 Martin Circus - Disco Circus 5:13
8 Ray Mang - A Flying Ross 1:19
9 Lime - Baby We're Gonna Love Tonight 4:49
10 Gary's Gang - Let's Lovedance Tonight 4:00
11 Flirts, The - Passion 3:53
12 Mekon Feat. Marc Almond - Please Stay (Royskopp Remix) 6:05
13 Angie Stone - Brotha (DJ Spen Remix) 4:12
14 Jean Winner - A Touch Of '85 (Dub Mix) 4:08
15 Faze O - Riding High 5:15
16 Bar-Kays - Give It Up 4:30

LOG
Exact Audio Copy V0.99 prebeta 5 from 4. May 2009

EAC extraction logfile from 21. February 2010, 0:52

Various / Eskimo Volume 4

Used drive : HP DVD Writer 1040r Adapter: 1 ID: 0

Read mode : Secure
Utilize accurate stream : Yes
Defeat audio cache : Yes
Make use of C2 pointers : No

Read offset correction : 6
Overread into Lead-In and Lead-Out : No
Fill up missing offset samples with silence : Yes
Delete leading and trailing silent blocks : No
Null samples used in CRC calculations : Yes
Used interface : Native Win32 interface for Win NT & 2000

Used output format : User Defined Encoder
Selected bitrate : 1024 kBit/s
Quality : High
Add ID3 tag : No
Command line compressor : C:\Program Files\Exact Audio Copy\FLAC\FLAC.EXE
Additional command line options : -5 -V -T "ARTIST=%a" -T "TITLE=%t" -T "ALBUM=%g" -T "DATE=%y" -T "TRACKNUMBER=%n" -T "GENRE=%m" -T "COMMENT=EAC Flac 1.1.2 -5" %s


TOC of the extracted CD

Track | Start | Length | Start sector | End sector
---------------------------------------------------------
1 | 0:00.00 | 6:15.25 | 0 | 28149
2 | 6:15.25 | 2:56.19 | 28150 | 41368
3 | 9:11.44 | 4:25.13 | 41369 | 61256
4 | 13:36.57 | 4:16.20 | 61257 | 80476
5 | 17:53.02 | 3:10.57 | 80477 | 94783
6 | 21:03.59 | 4:30.19 | 94784 | 115052
7 | 25:34.03 | 5:13.44 | 115053 | 138571
8 | 30:47.47 | 1:19.59 | 138572 | 144555
9 | 32:07.31 | 4:49.32 | 144556 | 166262
10 | 36:56.63 | 4:00.45 | 166263 | 184307
11 | 40:57.33 | 3:53.39 | 184308 | 201821
12 | 44:50.72 | 6:05.02 | 201822 | 229198
13 | 50:55.74 | 4:12.25 | 229199 | 248123
14 | 55:08.24 | 4:08.23 | 248124 | 266746
15 | 59:16.47 | 5:15.35 | 266747 | 290406
16 | 64:32.07 | 4:29.60 | 290407 | 310641


Range status and errors

Selected range

Filename C:\Users\Mike3\Desktop\Eskimo Volume 4 (Flac)\Various - Eskimo Volume 4.wav

Peak level 99.6 %
Range quality 100.0 %
Copy CRC 99226B47
Copy OK

No errors occurred


AccurateRip summary

Track 1 accurately ripped (confidence 1) [65FB19D1]
Track 2 accurately ripped (confidence 1) [B96BB418]
Track 3 accurately ripped (confidence 1) [9F74561F]
Track 4 accurately ripped (confidence 1) [8EAB81E7]
Track 5 accurately ripped (confidence 1) [79CB1F65]
Track 6 accurately ripped (confidence 1) [BE2D9104]
Track 7 accurately ripped (confidence 1) [4F02767A]
Track 8 accurately ripped (confidence 1) [5A6DF8DE]
Track 9 accurately ripped (confidence 1) [38F05CA3]
Track 10 accurately ripped (confidence 1) [1ABD1581]
Track 11 accurately ripped (confidence 1) [07840FD5]
Track 12 accurately ripped (confidence 1) [391FF3A7]
Track 13 accurately ripped (confidence 1) [C7BEF90D]
Track 14 accurately ripped (confidence 1) [F82E3A24]
Track 15 accurately ripped (confidence 1) [7F856410]
Track 16 accurately ripped (confidence 1) [9B2060BA]

All tracks accurately ripped

End of status report


Files
Lame 320 Kbps = 161MB
Flac 933 Kbps = 464MB

Download links txt
Pass is my username

ADVERTISING » Download fast « ADVERTISING
No comments for the news
Recent searches:
DONATE AVAXHOME:

Donate please!