Loading...
Done
Home > Music > +Electronica
Pupkulies & Rebecca - Beyond the Cage - 2008
Posted By : FTA | Date : 17 Oct 2021 09:42:01 | Comments : 2

Pupkulies & Rebecca - Beyond the Cage - 2008
Electronica | FLAC/CUE/LOG/COVER/GAIN -8 | EAC/CD | 250 MB | 3% RAR

"Electro meets Chanson, the straight bass drum reconciles with the acoustic guitar,
Minimal House mates with Songwriting. This might sound weird, but can be so natural...
curious? just listen!"

(www.myspace.com/pupkuliesrebecca)

(german)
Seriöses Songwriting und clubbige Beats gehen beim Berliner Duo Pupkulies & Rebecca
bestens zusammen. Seit 2005 besteht das Projekt der beiden. Pupkulies alias Janosch
besorgt am Rechner die Sounds. Rebacca schreibt die Lyrics und ist die Stimme des
Projekts.

Eine Arbeitsteilung, die bestens funktioniert. Denn schon kurz nach der Gründung des
Projekts erscheint 2006 das Pupkulies & Rebecca Debütalbum "The Way We". Ihre
musikalischen Wurzeln hat das Duo im Hip Hop. Dass der Sound von Pupkulies & Rebecca
dennoch durchweg elektronisch und überwiegend tanzbar ausfällt, führen die beiden auf
die Stadt Berlin zurück.

Dorthin kommt Janosch Blaul, um zu studieren. Das wachsende Interesse an elektronischer
Clubmusik stellt sich dann automatisch ein. Zusammen mit Aljoscha Schohe gründet er 2003
das Techno-Projekt Strassmann und veröffentlicht das Album "Playground".

Mit der privaten Liaison zwischen Blaul und Rebecca Hannah Gropp kristallisiert sich dann
Pupkulies & Rebecca als neues Musikprojekt heraus. Nach dem Debüt 2005 erscheint mit
"Beyond The Cage" zwei Jahre später der Nachfolger. Gropp prägt mit ihren in drei Sprachen
gesungenen Lyriks den Charakter des Albums. Songs mit dezentem poppigen Flair sind die Folge,
getragen von minimalistischen elektronischen Grooves.

(laut.de)

("like it -> buy it one day")


Track names

01 - Pupkulies und Rebecca - Windmills
02 - Pupkulies und Rebecca - Save Me
03 - Pupkulies und Rebecca - Pepper
04 - Pupkulies und Rebecca - Some gin
05 - Pupkulies und Rebecca - Madeleine
06 - Pupkulies und Rebecca - Trust Me
07 - Pupkulies und Rebecca - Les cages
08 - Pupkulies und Rebecca - Gustav
09 - Pupkulies und Rebecca - Der streicher
10 - Pupkulies und Rebecca - Bardou
11 - Pupkulies und Rebecca - Mondgefluester

EAC LOG - CD

Exact Audio Copy V0.99 prebeta 5 from XXX

EAC extraction logfile from XXX

Pupkulies & Rebecca / beyond the cage

Used drive : TSSTcorpCD/DVDW SH-S182D Adapter: 0 ID: 1

Read mode : Secure
Utilize accurate stream : Yes
Defeat audio cache : No
Make use of C2 pointers : No

Read offset correction : 6
Overread into Lead-In and Lead-Out : No
Fill up missing offset samples with silence : Yes
Delete leading and trailing silent blocks : No
Null samples used in CRC calculations : No
Used interface : Native Win32 interface for Win NT & 2000
Gap handling : Appended to previous track

Used output format : User Defined Encoder
Selected bitrate : 1024 kBit/s
Quality : High
Add ID3 tag : No
Command line compressor : C:\Programme\FLAC\flac.exe
Additional command line options : -8 -V -T "artist=%a" -T "title=%t" -T "album=%g" -T "date=%y" -T "tracknumber=%n" -T "genre=%m" -T "comment=FTA" %s


TOC of the extracted CD

Track | Start | Length | Start sector | End sector
---------------------------------------------------------
1 | 0:00.00 | 4:50.39 | 0 | 21788
2 | 4:50.39 | 5:03.29 | 21789 | 44542
3 | 9:53.68 | 5:36.17 | 44543 | 69759
4 | 15:30.10 | 4:24.17 | 69760 | 89576
5 | 19:54.27 | 2:50.45 | 89577 | 102371
6 | 22:44.72 | 4:27.67 | 102372 | 122463
7 | 27:12.64 | 4:40.44 | 122464 | 143507
8 | 31:53.33 | 5:17.61 | 143508 | 167343
9 | 37:11.19 | 4:48.48 | 167344 | 188991
10 | 41:59.67 | 3:35.12 | 188992 | 205128
11 | 45:35.04 | 4:56.41 | 205129 | 227369


Track 1

Filename C:\01-Pupkulies_&_Rebecca-Windmills.wav

Pre-gap length 0:00:02.00

Peak level 97.7 %
Track quality 100.0 %
Test CRC 6D19A638
Copy CRC 6D19A638
Track not present in AccurateRip database
Copy OK

Track 2

Filename C:\02-Pupkulies_&_Rebecca-Save_Me.wav

Pre-gap length 0:00:00.55

Peak level 97.7 %
Track quality 100.0 %
Test CRC A46DB903
Copy CRC A46DB903
Track not present in AccurateRip database
Copy OK

Track 3

Filename C:\03-Pupkulies_&_Rebecca-Pepper.wav

Pre-gap length 0:00:01.29

Peak level 97.7 %
Track quality 100.0 %
Test CRC AB58344B
Copy CRC AB58344B
Track not present in AccurateRip database
Copy OK

Track 4

Filename C:\04-Pupkulies_&_Rebecca-Some_gin.wav

Peak level 97.7 %
Track quality 100.0 %
Test CRC 90A93D3B
Copy CRC 90A93D3B
Track not present in AccurateRip database
Copy OK

Track 5

Filename C:\05-Pupkulies_&_Rebecca-Madeleine.wav

Pre-gap length 0:00:00.34

Peak level 97.7 %
Track quality 100.0 %
Test CRC 2342D96B
Copy CRC 2342D96B
Track not present in AccurateRip database
Copy OK

Track 6

Filename C:\06-Pupkulies_&_Rebecca-Trust_Me.wav

Pre-gap length 0:00:00.22

Peak level 97.7 %
Track quality 100.0 %
Test CRC DE1829F2
Copy CRC DE1829F2
Track not present in AccurateRip database
Copy OK

Track 7

Filename C:\07-Pupkulies_&_Rebecca-Les_cages.wav

Pre-gap length 0:00:02.37

Peak level 97.7 %
Track quality 99.9 %
Test CRC 553D3E4D
Copy CRC 553D3E4D
Track not present in AccurateRip database
Copy OK

Track 8

Filename C:\08-Pupkulies_&_Rebecca-Gustav.wav

Pre-gap length 0:00:02.03

Peak level 97.7 %
Track quality 100.0 %
Test CRC 2CED19F4
Copy CRC 2CED19F4
Track not present in AccurateRip database
Copy OK

Track 9

Filename C:\09-Pupkulies_&_Rebecca-Der_streicher.wav

Pre-gap length 0:00:01.58

Peak level 97.7 %
Track quality 100.0 %
Test CRC F2DABC5F
Copy CRC F2DABC5F
Track not present in AccurateRip database
Copy OK

Track 10

Filename C:\10-Pupkulies_&_Rebecca-Bardou.wav

Peak level 97.7 %
Track quality 99.9 %
Test CRC 0F7E2793
Copy CRC 0F7E2793
Track not present in AccurateRip database
Copy OK

Track 11

Filename C:\11-Pupkulies_&_Rebecca-Mondgeflüster.wav

Pre-gap length 0:00:01.43

Peak level 97.7 %
Track quality 99.9 %
Test CRC 6F52367B
Copy CRC 6F52367B
Track not present in AccurateRip database
Copy OK


None of the tracks are present in the AccurateRip database

No errors occurred

End of status report



rapidshare
filefactory

(problems with secured.in ? - !ie &| disable popup blocker)

FlacThemAll

... oh yes and the pw: FlacingYourStinkS.
Posted By: boccador Date: 17 Oct 2021 11:47:02
Defeat audio cache : No-->Yes
Null samples used in CRC calculations : No-->Yes
Posted By: StratosFear Date: 18 Oct 2021 21:41:22
...and... where's the cover? (Your post says FLAC/CUE/LOG/COVER)
DONATE AVAXHOME:

Donate please!