Loading...
Done
Home > Music > Easy Listening, Chillout, Lounge
Posted By : paprica | Date : 17 Sep 2021 22:47:45 | Comments : 0 |

VA - Kaffee Am Meer (mixed by Bruno from Ibiza) (2009)
EAC | Flac (Image+Cue+Log+Scans) | 56:42 min | 352 mb
MP3 | 320kbps | 144 mb
Genre: Lo-Fi, Lounge, Chillout, Downtempo | Label: Ministry Of Sound


Tracklist

01. Ibiza Sound System - Slow Motion
02. Genuine - Surface
03. Balearic Inc. - Darkness Visible
04. Myagi feat. Clara Da Costa - Eleanor Rugby
05. OHM G - Time To Chill
06. St. Raphael - Multiplexer
07. YPEY - Peaceful Day
08. PM:FM - Sento
09. Kabanjak - Gipsy Soul (Aancient Astronauts Remix)
10. Les Adams feat. Alexis - Twist In My Sobriety (Eddie Silverton Remix)
11. J Viewz - Move Change
12. A Million Flavours - The Last Wave
13. Physics - Don't Deny Me Love (Martinez Aquarium Jazz Dub)

About BRUNO FROM IBIZA
Born in the North of France in 1969, BRUNO came to Ibiza for the first time in 1994. After playing his personal style in local bars, he opened up his own record store. In 1997, he became the new resident DJ at CAFE DEL MAR. The next year, BRUNO FROM IBIZA released his first compilation called REAL IBIZA. Since then, he compiled more than 10 albums for CAFÉ DEL MAR and brought new concepts such as CHILL HOUSE MIX and GLOBAL LOUNGE sessions. BRUNO FROM IBIZA is also an international DJ playing house music and electro in the best clubs around the world. In 2005, he released his first album called PUZZLE. BRUNO FROM IBIZA is not playing at CAFE DEL MAR anymore. Now you can find him playing in Ibiza at L'ELEPHANT and ATZARO.


EAC LOG
Exact Audio Copy V0.99 prebeta 4 from 23. January 2008

EAC extraction logfile from 28. June 2009, 13:03

Various / Kaffee Am Meer (mixed by Bruno from Ibiza)

Used drive : PIONEER DVD-RW DVR-112D Adapter: 1 ID: 0

Read mode : Secure
Utilize accurate stream : Yes
Defeat audio cache : Yes
Make use of C2 pointers : No

Read offset correction : 48
Overread into Lead-In and Lead-Out : No
Fill up missing offset samples with silence : Yes
Delete leading and trailing silent blocks : No
Null samples used in CRC calculations : Yes
Used interface : Installed external ASPI interface

Used output format : User Defined Encoder
Selected bitrate : 192 kBit/s
Quality : Low
Add ID3 tag : Yes
Command line compressor : C:\Program Files\E A C Audio\Flac\flac.exe
Additional command line options : -V -8 -T "artist=%a" -T "title=%t" -T "album=%g" -T "date=%y" -T "tracknumber=%n" -T "genre=%m" %s


TOC of the extracted CD

Track | Start | Length | Start sector | End sector
---------------------------------------------------------
1 | 0:00.00 | 4:10.00 | 0 | 18749
2 | 4:10.00 | 5:23.00 | 18750 | 42974
3 | 9:33.00 | 4:42.00 | 42975 | 64124
4 | 14:15.00 | 3:30.00 | 64125 | 79874
5 | 17:45.00 | 5:00.00 | 79875 | 102374
6 | 22:45.00 | 3:11.00 | 102375 | 116699
7 | 25:56.00 | 3:57.00 | 116700 | 134474
8 | 29:53.00 | 4:28.00 | 134475 | 154574
9 | 34:21.00 | 4:29.00 | 154575 | 174749
10 | 38:50.00 | 2:31.00 | 174750 | 186074
11 | 41:21.00 | 4:38.00 | 186075 | 206924
12 | 45:59.00 | 4:40.00 | 206925 | 227924
13 | 50:39.00 | 6:03.04 | 227925 | 255153


Range status and errors

Selected range

Filename G:\Various - Kaffee Am Meer (mixed by Bruno from Ibiza)\Various - Kaffee Am Meer (mixed by Bruno from Ibiza).wav

Peak level 100.0 %
Range quality 100.0 %
Test CRC 1B1DBAF5
Copy CRC 1B1DBAF5
Copy OK

No errors occurred


AccurateRip summary

Track 1 not present in database
Track 2 not present in database
Track 3 not present in database
Track 4 not present in database
Track 5 not present in database
Track 6 not present in database
Track 7 not present in database
Track 8 not present in database
Track 9 not present in database
Track 10 not present in database
Track 11 not present in database
Track 12 not present in database
Track 13 not present in database

None of the tracks are present in the AccurateRip database

End of status report




ADVERTISING » High Speed Download « ADVERTISING




No comments for the news
Recent searches: