Loading...
Done
Home > Music > COLL Classical
Tibor Varga Collection No. 06 - Various composers (1993) - UNRELEASED
Posted By : fastposter | Date : 12 Mar 2022 00:25:41 | Comments : 4

Tibor Varga Collection No. 06 - Various composers (1993) - UNRELEASED
Classical | Instrumental | Violin | 1CD | FLAC | EAC | LOG+CUE | 314 MB
Tibor Varga Foundation/Philharmonia | Artwork + Leaflet scans EN/FR/DE (600 dpi)

In 1974 Tibor Varga created the Tibor Varga Foundation which, in collaboration with the company Philharmonia, is the editor of this unreleased "Tibor Varga CD Collection". This collection of 24 CD's is distinguished as an artistic and historic documentation, in tribute to a great musician of world renown who profoundly affected the history of musical interpretation.

This sixth CD includes remarkable interpretations of major works by Albinoni, Vivaldi, Rameau, Debussty, Dvorak, Donizetti, and Rossini.


Performers

Tibor Varga, violon et direction
S. Béguier, harpe
K. Georgian, violoncelle
PH Lefebvre, orgue
Orchestre du Festival Tibor Varga Sion

Tracklist :

Tomaso Albinoni

01. Adagio

Antonio Vivaldi - La Notte (op. X no. 2 / RV 439)

02. Largo
03. Fantasmi - presto
04. Largo
05. Allegro

Jean-Philippe Rameau - Les Indes Galantes (extraits)

06. Entrée des 4 Nations
07. Rigaudon
08. Tambourin

Claude Debussy

09. Danse sacrée et Danse profane

Anton Dvorak

10. Notturno

Gaetano Donizetti - Concert pour violon et violoncelle

11. Allegro ma non troppo
12. Andante
13. Allegro

Johacchino Rossini - Sonata no. 6

14. Allegro spiritoso
15. Andante assai
16. "Tempesta" Allegro

Total time : 00:55:23

Log
Exact Audio Copy V0.99 prebeta 5 from 4. May 2009

EAC extraction logfile from 8. March 2010, 11:08

Tibor Varga / Tibor Varga Collection Vol. 06

Used drive : HL-DT-STDVD-RAM GSA-H55N Adapter: 5 ID: 0

Read mode : Burst

Read offset correction : 102
Overread into Lead-In and Lead-Out : No
Fill up missing offset samples with silence : Yes
Delete leading and trailing silent blocks : No
Null samples used in CRC calculations : No
Used interface : Native Win32 interface for Win NT & 2000
Gap handling : Not detected, thus appended to previous track

Used output format : User Defined Encoder
Selected bitrate : 768 kBit/s
Quality : High
Add ID3 tag : No
Command line compressor : C:\Program Files\Exact Audio Copy\FLAC\FLAC.EXE
Additional command line options : -8 -V -T "Artist=%a" -T "Title=%t" -T "Album=%g" -T "Date=%y" -T "Tacknumber=%n" -T "Genre=%m" %s -o %d


TOC of the extracted CD

Track | Start | Length | Start sector | End sector
---------------------------------------------------------
1 | 0:00.33 | 7:25.67 | 33 | 33474
2 | 7:26.25 | 2:27.58 | 33475 | 44557
3 | 9:54.08 | 3:05.47 | 44558 | 58479
4 | 12:59.55 | 1:27.50 | 58480 | 65054
5 | 14:27.30 | 2:12.30 | 65055 | 74984
6 | 16:39.60 | 1:14.20 | 74985 | 80554
7 | 17:54.05 | 1:12.60 | 80555 | 86014
8 | 19:06.65 | 1:20.00 | 86015 | 92014
9 | 20:26.65 | 10:46.18 | 92015 | 140482
10 | 31:13.08 | 7:58.55 | 140483 | 176387
11 | 39:11.63 | 6:27.15 | 176388 | 205427
12 | 45:39.03 | 1:56.50 | 205428 | 214177
13 | 47:35.53 | 2:48.30 | 214178 | 226807
14 | 50:24.08 | 7:28.72 | 226808 | 260479
15 | 57:53.05 | 2:35.00 | 260480 | 272104
16 | 60:28.05 | 5:50.28 | 272105 | 298382


Track 1

Filename D:\Ripped\01. Tibor Varga - Adagio.wav

Peak level 79.1 %
Copy CRC 13E84A49
Cannot be verified as accurate (confidence 1) [5B5344C2], AccurateRip returned [DD26F0C3]
Copy finished

Track 2

Filename D:\Ripped\02. Tibor Varga - La Notte (Largo).wav

Peak level 34.3 %
Copy CRC 986F682D
Cannot be verified as accurate (confidence 1) [E04E21CB], AccurateRip returned [644E488F]
Copy OK

Track 3

Filename D:\Ripped\03. Tibor Varga - La Notte (Fantasmi - presto).wav

Peak level 62.1 %
Copy CRC 61F073FB
Accurately ripped (confidence 1) [87E85904]
Copy OK

Track 4

Filename D:\Ripped\04. Tibor Varga - La Notte (Largo).wav

Peak level 10.3 %
Copy CRC 4ACFCE12
Accurately ripped (confidence 1) [5EA5BF16]
Copy OK

Track 5

Filename D:\Ripped\05. Tibor Varga - La Notte (Allegro).wav

Peak level 97.2 %
Copy CRC 7EAF77D2
Cannot be verified as accurate (confidence 1) [FC6FA6DA], AccurateRip returned [16578A5E]
Copy finished

Track 6

Filename D:\Ripped\06. Tibor Varga - Les Indes Galantes (Entrée des 4 Nations).wav

Peak level 96.1 %
Copy CRC ED439ABD
Cannot be verified as accurate (confidence 1) [776B89F5], AccurateRip returned [9FE7B348]
Copy finished

Track 7

Filename D:\Ripped\07. Tibor Varga - Les Indes Galantes (Rigaudon).wav

Peak level 97.9 %
Copy CRC 8A998C2F
Cannot be verified as accurate (confidence 1) [84C062FC], AccurateRip returned [AB5AC2A2]
Copy finished

Track 8

Filename D:\Ripped\08. Tibor Varga - Les Indes Galantes (Tambourin).wav

Peak level 97.2 %
Copy CRC 656AD1AE
Cannot be verified as accurate (confidence 1) [19338089], AccurateRip returned [520FAF7A]
Copy finished

Track 9

Filename D:\Ripped\09. Tibor Varga - Danse sacrée et Danse profane.wav

Peak level 99.8 %
Copy CRC 2B5AF768
Cannot be verified as accurate (confidence 1) [EDB0865B], AccurateRip returned [26AF4004]
Copy finished

Track 10

Filename D:\Ripped\10. Tibor Varga - Notturno.wav

Peak level 100.0 %
Copy CRC 1C3CBE07
Track not present in AccurateRip database
Copy finished

Track 11

Filename D:\Ripped\11. Tibor Varga - Concert pour violon et violoncelle (Allegro ma non troppo).wav

Peak level 99.5 %
Copy CRC 944DD7E9
Cannot be verified as accurate (confidence 1) [F6DE8778], AccurateRip returned [33402EA2]
Copy finished

Track 12

Filename D:\Ripped\12. Tibor Varga - Concert pour violon et violoncelle (Andante).wav

Peak level 98.1 %
Copy CRC D3D7FD54
Cannot be verified as accurate (confidence 1) [20097DF5], AccurateRip returned [23D16734]
Copy finished

Track 13

Filename D:\Ripped\13. Tibor Varga - Concert pour violon et violoncelle (Allegro).wav

Peak level 99.5 %
Copy CRC 92071A0B
Cannot be verified as accurate (confidence 1) [CC1320A9], AccurateRip returned [5A9F3EFF]
Copy finished

Track 14

Filename D:\Ripped\14. Tibor Varga - Sonata no. 6 (Allegro spiritoso).wav

Peak level 99.9 %
Copy CRC 496780EA
Cannot be verified as accurate (confidence 1) [45F4DA50], AccurateRip returned [607DE046]
Copy finished

Track 15

Filename D:\Ripped\15. Tibor Varga - Sonata no. 6 (Andante assai).wav

Peak level 99.1 %
Copy CRC 1658EB92
Cannot be verified as accurate (confidence 1) [49B5393D], AccurateRip returned [C36921A7]
Copy finished

Track 16

Filename D:\Ripped\16. Tibor Varga - Sonata no. 6 (Tempesta Allegro).wav

Peak level 99.4 %
Copy CRC 7C490936
Cannot be verified as accurate (confidence 1) [2CADF9E8], AccurateRip returned [1F1CFCB2]
Copy finished

None of the tracks are present in the AccurateRip database

No errors occurred

End of status report


Cue
REM GENRE Classical
REM DATE 1993
REM DISCID E80F8A10
REM COMMENT "ExactAudioCopy v0.99pb5"
PERFORMER "Tibor Varga"
TITLE "Tibor Varga Collection Vol. 06"
FILE "01. Tibor Varga - Adagio.wav" WAVE
TRACK 01 AUDIO
TITLE "Adagio"
PERFORMER "Tibor Varga"
PREGAP 00:00:33
INDEX 01 00:00:00
TRACK 02 AUDIO
TITLE "La Notte (Largo)"
PERFORMER "Tibor Varga"
INDEX 00 07:20:67
FILE "02. Tibor Varga - La Notte (Largo).wav" WAVE
INDEX 01 00:00:00
FILE "03. Tibor Varga - La Notte (Fantasmi - presto).wav" WAVE
TRACK 03 AUDIO
TITLE "La Notte (Fantasmi - presto)"
PERFORMER "Tibor Varga"
INDEX 01 00:00:00
FILE "04. Tibor Varga - La Notte (Largo).wav" WAVE
TRACK 04 AUDIO
TITLE "La Notte (Largo)"
PERFORMER "Tibor Varga"
INDEX 01 00:00:00
TRACK 05 AUDIO
TITLE "La Notte (Allegro)"
PERFORMER "Tibor Varga"
INDEX 00 01:26:53
FILE "05. Tibor Varga - La Notte (Allegro).wav" WAVE
INDEX 01 00:00:00
TRACK 06 AUDIO
TITLE "Les Indes Galantes (Entrée des 4 Nations)"
PERFORMER "Tibor Varga"
INDEX 00 02:04:30
FILE "06. Tibor Varga - Les Indes Galantes (Entrée des 4 Nations).wav" WAVE
INDEX 01 00:00:00
TRACK 07 AUDIO
TITLE "Les Indes Galantes (Rigaudon)"
PERFORMER "Tibor Varga"
INDEX 00 01:13:20
FILE "07. Tibor Varga - Les Indes Galantes (Rigaudon).wav" WAVE
INDEX 01 00:00:00
FILE "08. Tibor Varga - Les Indes Galantes (Tambourin).wav" WAVE
TRACK 08 AUDIO
TITLE "Les Indes Galantes (Tambourin)"
PERFORMER "Tibor Varga"
INDEX 01 00:00:00
TRACK 09 AUDIO
TITLE "Danse sacrée et Danse profane"
PERFORMER "Tibor Varga"
INDEX 00 01:12:00
FILE "09. Tibor Varga - Danse sacrée et Danse profane.wav" WAVE
INDEX 01 00:00:00
TRACK 10 AUDIO
TITLE "Notturno"
PERFORMER "Tibor Varga"
INDEX 00 10:38:18
FILE "10. Tibor Varga - Notturno.wav" WAVE
INDEX 01 00:00:00
TRACK 11 AUDIO
TITLE "Concert pour violon et violoncelle (Allegro ma non troppo)"
PERFORMER "Tibor Varga"
INDEX 00 07:49:55
FILE "11. Tibor Varga - Concert pour violon et violoncelle (Allegro ma non troppo).wav" WAVE
INDEX 01 00:00:00
TRACK 12 AUDIO
TITLE "Concert pour violon et violoncelle (Andante)"
PERFORMER "Tibor Varga"
INDEX 00 06:24:15
FILE "12. Tibor Varga - Concert pour violon et violoncelle (Andante).wav" WAVE
INDEX 01 00:00:00
TRACK 13 AUDIO
TITLE "Concert pour violon et violoncelle (Allegro)"
PERFORMER "Tibor Varga"
INDEX 00 01:52:50
FILE "13. Tibor Varga - Concert pour violon et violoncelle (Allegro).wav" WAVE
INDEX 01 00:00:00
TRACK 14 AUDIO
TITLE "Sonata no. 6 (Allegro spiritoso)"
PERFORMER "Tibor Varga"
INDEX 00 02:41:30
FILE "14. Tibor Varga - Sonata no. 6 (Allegro spiritoso).wav" WAVE
INDEX 01 00:00:00
TRACK 15 AUDIO
TITLE "Sonata no. 6 (Andante assai)"
PERFORMER "Tibor Varga"
INDEX 00 07:26:72
FILE "15. Tibor Varga - Sonata no. 6 (Andante assai).wav" WAVE
INDEX 01 00:00:00
FILE "16. Tibor Varga - Sonata no. 6 (Tempesta Allegro).wav" WAVE
TRACK 16 AUDIO
TITLE "Sonata no. 6 (Tempesta Allegro)"
PERFORMER "Tibor Varga"
INDEX 01 00:00:00


Varga's biography

Download (*)

Rapidshare

Part 1 | Part 2 | Part 3 | Part 4

Hotfile

Part 1 | Part 2 | Part 3 | Part 4

Deposit Files

Part 1 | Part 2 | Part 3 | Part 4

(*) Interchangeable links

NO MIRRORS PLEASE !!!

Also in the Tibor Varga Collection :

No. 1 - Historic Recordings
No. 02 - Johann Sebastian Bach
No. 03 - Mozart
No. 04 - Tchaikovsky & Bruch
No. 05 - Franz Schubert
ADVERTISING » Download fast « ADVERTISING
Posted By: AltvioolToon Date: 12 Mar 2022 08:27:03
And here volume 6. Many thanks and regards from The Netherlands.
Posted By: Nutz Date: 12 Mar 2022 23:07:16
Very intresting series thank you. But this posting appears to have very bad audio skips.
Posted By: InciFinci Date: 13 Mar 2022 16:55:22
Thank you very much and many thanks for the corrected CD 3!
Posted By: Alfy Date: 19 Mar 2022 11:36:57
Sorry, but there are some quality issues with this posting. The CD noticeably jumps at times, check the 4th movement of the Notte to notice it at its worst. Any chance for a reup? Cheers!
Recent searches: