Loading...
Done
Home > Music > COLL Classical
Tibor Varga Collection No. 05 - Franz Schubert (1993) - UNRELEASED
Posted By : fastposter | Date : 10 Mar 2022 18:17:00 | Comments : 4
Tibor Varga Collection No. 05 - Franz Schubert (1993) - UNRELEASED

Tibor Varga Collection No. 05 - Franz Schubert (1993) - UNRELEASED
Classical | Instrumental | Violin | 1CD | FLAC | EAC | LOG+CUE | 265 MB
Tibor Varga Foundation/Philharmonia | Artwork + Leaflet scans EN/FR/DE (600 dpi)

In 1974 Tibor Varga created the Tibor Varga Foundation which, in collaboration with the company Philharmonia, is the editor of this unreleased "Tibor Varga CD Collection". This collection of 24 CD's is distinguished as an artistic and historic documentation, in tribute to a great musician of world renown who profoundly affected the history of musical interpretation.

Schubert's String Quintet in C Major op. 163 (D 956) is a musical autobiography, a philosophy in sound revealing both melancholy and vision. Without artifice or affectation, the music of Schubert seems to spring alive, and one can easily recognize the hand of the author: each detail, no matter how minute, finds its justification as part of a profound formal plan.

While Tibor Varga was living in London, one of his closest friends was the Hungarian composer Matyas Seiber, also living at that time in England. After the premier performance of one of Seibers works in London, with Tibor Varga as interpreter, the two musicians engaged in a long discussion to define the concept of beauty in music. At the end, Seiber declared: "In the final analysis, I always come back to a very simple thought: if God, at the last minute of my life, gave me the choice of a single piece of music, I would have to choose between the slow movement of the Mozart Quintet, or (and maybe even moreso) the slow movement of the Quintet of Schubert."

Two days later, Matyas Seiber died following a tragic accident. Tibor Varga immediately took the spontaneous decision to record the Schubert Quintet in C Major, op. 163, in memory of his friend.


Performers

- TIBOR VARGA, violin

It is not only as a soloist and orchestral conductor, but also as an interpreter of Chamber works, that Tibor Varga remains faithful to his principies: to go to the essential in music, to live it and to communicate it. The international music press sees in him "one of the greatest virtuosos who has ever lived" (Musica, Rome). "In the works of Bach, Varga arrived at the summit of the art of interprétation" (Arts in Documents, Tokyo). "Tibor Varga is the elect interpreter of Mozart" (Répertoire des disques compacts, Paris). In romantic music, Varga achieves "depths never known before" (Das Orchester, Germany). "Varga, one of the purest musical virtuosos of the Century" (Le Monde de la Musique, Paris). "I would like to be younger, to write more works for you" (Arnold Schönberg).

- JUDITH JUSTICE, a violinist born in Cincinnati (U.S.A.), studied with Tibor Varga several years before becoming his assistant.

- MATTI HIRVIKANGAS also worked under the direction of Tibor Varga. He holds today the chair of First Viola with the Radio Symphony Orchestra of Helsinki.

- MARTIN OSTERTAG is a solo-cellist with the SWF-Symphony Orchestra, Germany, and professor in a German Academy of Music. He was associated for several years with the Tibor Varga Chamber Music Ensemble.

- SUSAN RYBICKI, cellist, was a student of André Navarra, and teaches today at the conservatories of Lausanne and Sion.

- The Chamber Music Ensemble Tibor Varga.

Tracklist :

Franz Schubert - String Quintet in C Major, op. 163 (D 956)

01. Allegro ma non troppo
02. Adagio
03. Scherzo: Presto - Trio : Andante sostenuto
04. Allegretto

Total time : 00:55:23

Log
Exact Audio Copy V0.99 prebeta 5 from 4. May 2009

EAC extraction logfile from 8. March 2010, 10:43

Tibor Varga / Tibor Varga Collection Vol. 05

Used drive : HL-DT-STDVD-RAM GSA-H55N Adapter: 5 ID: 0

Read mode : Burst

Read offset correction : 102
Overread into Lead-In and Lead-Out : No
Fill up missing offset samples with silence : Yes
Delete leading and trailing silent blocks : No
Null samples used in CRC calculations : No
Used interface : Native Win32 interface for Win NT & 2000
Gap handling : Not detected, thus appended to previous track

Used output format : User Defined Encoder
Selected bitrate : 768 kBit/s
Quality : High
Add ID3 tag : No
Command line compressor : C:\Program Files\Exact Audio Copy\FLAC\FLAC.EXE
Additional command line options : -8 -V -T "Artist=%a" -T "Title=%t" -T "Album=%g" -T "Date=%y" -T "Tacknumber=%n" -T "Genre=%m" %s -o %d


TOC of the extracted CD

Track | Start | Length | Start sector | End sector
---------------------------------------------------------
1 | 0:00.00 | 19:26.25 | 0 | 87474
2 | 19:26.25 | 15:22.27 | 87475 | 156651
3 | 34:48.52 | 11:31.30 | 156652 | 208506
4 | 46:20.07 | 9:03.56 | 208507 | 249287


Track 1

Filename D:\Ripped\01. Tibor Varga - Quintette à cordes, op. 163 (Allegro ma non troppo).wav

Peak level 70.4 %
Copy CRC 5610ED89
Track not present in AccurateRip database
Copy OK

Track 2

Filename D:\Ripped\02. Tibor Varga - Quintette à cordes, op. 163 (Adagio).wav

Peak level 93.1 %
Copy CRC 5D25CB11
Track not present in AccurateRip database
Copy finished

Track 3

Filename D:\Ripped\03. Tibor Varga - Quintette à cordes, op. 163 (Scherzo Presto - Trio Andante sostenuto).wav

Peak level 97.6 %
Copy CRC A91F2E3D
Track not present in AccurateRip database
Copy finished

Track 4

Filename D:\Ripped\04. Tibor Varga - Quintette à cordes, op. 163 (Allegretto).wav

Peak level 97.6 %
Copy CRC CB6534F6
Track not present in AccurateRip database
Copy finished


None of the tracks are present in the AccurateRip database

No errors occurred

End of status report


Cue
REM GENRE Classical
REM DATE 1993
REM DISCID 300CFB04
REM COMMENT "ExactAudioCopy v0.99pb5"
PERFORMER "Tibor Varga"
TITLE "Tibor Varga Collection Vol. 05"
FILE "01. Tibor Varga - Quintette à cordes, op. 163 (Allegro ma non troppo).wav" WAVE
TRACK 01 AUDIO
TITLE "Quintette à cordes, op. 163 (Allegro ma non troppo)"
PERFORMER "Tibor Varga"
FLAGS DCP
INDEX 01 00:00:00
TRACK 02 AUDIO
TITLE "Quintette à cordes, op. 163 (Adagio)"
PERFORMER "Tibor Varga"
FLAGS DCP
INDEX 00 19:16:55
FILE "02. Tibor Varga - Quintette à cordes, op. 163 (Adagio).wav" WAVE
INDEX 01 00:00:00
TRACK 03 AUDIO
TITLE "Quintette à cordes, op. 163 (Scherzo Presto - Trio Andante sostenuto)"
PERFORMER "Tibor Varga"
FLAGS DCP
INDEX 00 15:08:57
FILE "03. Tibor Varga - Quintette à cordes, op. 163 (Scherzo Presto - Trio Andante sostenuto).wav" WAVE
INDEX 01 00:00:00
TRACK 04 AUDIO
TITLE "Quintette à cordes, op. 163 (Allegretto)"
PERFORMER "Tibor Varga"
FLAGS DCP
INDEX 00 11:27:60
FILE "04. Tibor Varga - Quintette à cordes, op. 163 (Allegretto).wav" WAVE
INDEX 01 00:00:00


Varga's biography

Download (*)

Rapidshare

Part 1 | Part 2 | Part 3

Hotfile

Part 1 | Part 2 | Part 3

Deposit Files

Part 1 | Part 2 | Part 3

(*) Interchangeable links

NO MIRRORS PLEASE !!!

Also in the Tibor Varga Collection :

No. 1 - Historic Recordings
No. 02 - Johann Sebastian Bach
No. 03 - Mozart
No. 04 - Tchaikovsky & Bruch

ADVERTISING » Download fast « ADVERTISING
Posted By: InciFinci Date: 10 Mar 2022 18:41:54
thank you.
Can you reupload CD 3 without clicks?
Posted By: AltvioolToon Date: 11 Mar 2022 09:10:35
Many thanks for volume 5. Maybe you can rework volume 3.
Posted By: fastposter Date: 11 Mar 2022 12:07:51
Re: Volume 3

I will check the problem and reup, however not before late next week !
Posted By: Benzok Date: 12 Mar 2022 00:38:26
Log: Read mode : Burst! NO! http://img13.imageshack.us/i/extractionmethod.jpg/
Sorry
Recent searches: