Loading...
Done
Home > Music > COLL Classical
Tibor Varga Collection No. 04 - Tchaikovsky & Bruch (1993) - UNRELEASED
Posted By : fastposter | Date : 10 Mar 2022 10:53:47 | Comments : 1
Tibor Varga Collection No. 04 - Tchaikovsky & Bruch (1993) - UNRELEASED

Tibor Varga Collection No. 04 - Tchaikovsky & Bruch (1993) - UNRELEASED
Classical | Instrumental | Violin | 1CD | FLAC | EAC | LOG+CUE | 329Mb
Tibor Varga Foundation/Philharmonia | Artwork + Leaflet scans EN/FR/DE (600 dpi) + PDF/DOC

In 1974 Tibor Varga created the Tibor Varga Foundation which, in collaboration with the company Philharmonia, is the editor of this unreleased "Tibor Varga CD Collection". This collection of 24 CD's is distinguished as an artistic and historic documentation, in tribute to a great musician of world renown who profoundly affected the history of musical interpretation.

These recordings by Varga of the Concertos for Violin of Tchaikovsky and Bruch serve as models in the history of musical interpretation. The purity of melodic line, the absolute accuracy of pitch, the expressive perfection of a playing literally sheathed in flawless phrasing, where everything is at once reflective yet supremely natural - all applied in a manner particularly suited to the Concerto of Tchaikovsky. There is a similar reaction to the Concerto op. 26 of Bruch. Varga gives to this work, notably in the second movement, with its abundant melodies, a depth heretofore unknown.


Performers

Tibor Varga, violin
Orchestre du Festival Tibor Varga Sion
Conductor : Jean-Marie Auberson (*)

(*) Pupil of Carl Schuricht and Ernest Ansermet, Jean-Marie Auberson has conducted such orchestras as the Orchestre de la Suisse Romande, the Orchestra of Tonhalle, Zurich, the orchestras of Basel and Berne, and has worked frequently with the Operas of Hamburg and Geneva.

Tracklist :

Pyotr Ilyich Tchaikovsky - Concerto for Violin and Orchestra in D major, op. 35

01. Allegro moderato
02. Canzonettta - Andante
03. Finale. Allegro vivacissimo

Max Bruch - Concerto for Violin and Orchestra No. 1 in G minor, op. 26

04. Vorspiel - Allegro Moderato
05. Adagio
06. Allegro energico

Total time : 01:02:58

Log
Exact Audio Copy V0.99 prebeta 5 from 4. May 2009

EAC extraction logfile from 8. March 2010, 8:46

Tibor Varga / Tibor Varga Collection Vol. 04

Used drive : HL-DT-STDVD-RAM GSA-H55N Adapter: 5 ID: 0

Read mode : Burst

Read offset correction : 102
Overread into Lead-In and Lead-Out : No
Fill up missing offset samples with silence : Yes
Delete leading and trailing silent blocks : No
Null samples used in CRC calculations : No
Used interface : Native Win32 interface for Win NT & 2000
Gap handling : Not detected, thus appended to previous track

Used output format : User Defined Encoder
Selected bitrate : 768 kBit/s
Quality : High
Add ID3 tag : No
Command line compressor : C:\Program Files\Exact Audio Copy\FLAC\FLAC.EXE
Additional command line options : -8 -V -T "Artist=%a" -T "Title=%t" -T "Album=%g" -T "Date=%y" -T "Tacknumber=%n" -T "Genre=%m" %s -o %d


TOC of the extracted CD

Track | Start | Length | Start sector | End sector
---------------------------------------------------------
1 | 0:00.00 | 18:57.12 | 0 | 85286
2 | 18:57.12 | 7:43.27 | 85287 | 120038
3 | 26:40.39 | 9:42.54 | 120039 | 163742
4 | 36:23.18 | 8:43.24 | 163743 | 202991
5 | 45:06.42 | 9:58.54 | 202992 | 247895
6 | 55:05.21 | 7:52.42 | 247896 | 283337


Track 1

Filename D:\Ripped\01. Tibor Varga - Concerto pour violon op. 35 (Allegro moderato).wav

Peak level 92.4 %
Copy CRC 120810C4
Track not present in AccurateRip database
Copy finished

Track 2

Filename D:\Ripped\02. Tibor Varga - Concerto pour violon op. 35 (Canzonettta - Andante).wav

Peak level 74.1 %
Copy CRC 9ED51E45
Track not present in AccurateRip database
Copy finished

Track 3

Filename D:\Ripped\03. Tibor Varga - Concerto pour violon op. 35 (Finale. Allegro vivacissimo).wav

Peak level 99.9 %
Copy CRC 7F6B2EF0
Track not present in AccurateRip database
Copy finished

Track 4

Filename D:\Ripped\04. Tibor Varga - Concerto pour violon op. 26 (Vorspiel - Allegro Moderato).wav

Peak level 100.0 %
Copy CRC F1F957F5
Track not present in AccurateRip database
Copy finished

Track 5

Filename D:\Ripped\05. Tibor Varga - Concerto pour violon op. 26 (Adagio).wav

Peak level 100.0 %
Copy CRC 5E90D232
Track not present in AccurateRip database
Copy finished

Track 6

Filename D:\Ripped\06. Tibor Varga - Concerto pour violon op. 26 (Allegro energico).wav

Peak level 100.0 %
Copy CRC C0885B58
Track not present in AccurateRip database
Copy finished


None of the tracks are present in the AccurateRip database

No errors occurred

End of status report


Cue
REM GENRE Classical
REM DATE 1993
REM DISCID 470EC106
REM COMMENT "ExactAudioCopy v0.99pb5"
CATALOG 0000000000000
PERFORMER "Tibor Varga"
TITLE "Tibor Varga Collection Vol. 04"
FILE "01. Tibor Varga - Concerto pour violon op. 35 (Allegro moderato).wav" WAVE
TRACK 01 AUDIO
TITLE "Concerto pour violon op. 35 (Allegro moderato)"
PERFORMER "Tibor Varga"
INDEX 01 00:00:00
TRACK 02 AUDIO
TITLE "Concerto pour violon op. 35 (Canzonettta - Andante)"
PERFORMER "Tibor Varga"
INDEX 00 18:56:67
FILE "02. Tibor Varga - Concerto pour violon op. 35 (Canzonettta - Andante).wav" WAVE
INDEX 01 00:00:00
TRACK 03 AUDIO
TITLE "Concerto pour violon op. 35 (Finale. Allegro vivacissimo)"
PERFORMER "Tibor Varga"
INDEX 00 07:43:06
FILE "03. Tibor Varga - Concerto pour violon op. 35 (Finale. Allegro vivacissimo).wav" WAVE
INDEX 01 00:00:00
TRACK 04 AUDIO
TITLE "Concerto pour violon op. 26 (Vorspiel - Allegro Moderato)"
PERFORMER "Tibor Varga"
INDEX 00 09:34:47
FILE "04. Tibor Varga - Concerto pour violon op. 26 (Vorspiel - Allegro Moderato).wav" WAVE
INDEX 01 00:00:00
TRACK 05 AUDIO
TITLE "Concerto pour violon op. 26 (Adagio)"
PERFORMER "Tibor Varga"
INDEX 00 08:42:69
FILE "05. Tibor Varga - Concerto pour violon op. 26 (Adagio).wav" WAVE
INDEX 01 00:00:00
TRACK 06 AUDIO
TITLE "Concerto pour violon op. 26 (Allegro energico)"
PERFORMER "Tibor Varga"
INDEX 00 09:58:34
FILE "06. Tibor Varga - Concerto pour violon op. 26 (Allegro energico).wav" WAVE
INDEX 01 00:00:00


Varga's biography

Download (*)

Rapidshare

Part 1 | Part 2 | Part 3 | Part 4

Hotfile

Part 1 | Part 2 | Part 3 | Part 4

Deposit Files

Part 1 | Part 2 | Part 3 | Part 4

(*) Interchangeable links

NO MIRRORS PLEASE !!!

Also in the Tibor Varga Collection :

No. 1 - Historic Recordings
No. 02 - Johann Sebastian Bach
No. 03 - Mozart
ADVERTISING » Download fast « ADVERTISING
Posted By: AltvioolToon Date: 10 Mar 2022 14:22:29
Thanks for no. 4
Recent searches:
DONATE AVAXHOME:

Donate please!