Loading...
Done
Home > Music > COLL Classical
Tibor Varga Collection No. 03 - Mozart (1993) - UNRELEASED
Posted By : fastposter | Date : 09 Mar 2022 15:44:19 | Comments : 4
Tibor Varga Collection No. 03 - Mozart (1993) - UNRELEASED

Tibor Varga Collection No. 03 - Mozart (1993) - UNRELEASED
Classical | Instrumental | Violin/Piano | 1CD | FLAC | EAC | LOG+CUE | 328 MB
Tibor Varga Foundation/Philharmonia | Artwork + Leaflet scans EN/FR/DE (1200 dpi)

In 1974 Tibor Varga created the Tibor Varga Foundation which, in collaboration with the company Philharmonia, is the editor of this unreleased "Tibor Varga CD Collection". This collection of 24 CD's is distinguished as an artistic and historic documentation, in tribute to a great musician of world renown who profoundly affected the history of musical interpretation.

On this third CD, Tibor Varga interpretates the Concerto for Violin and Ochestra no.5 in la major (KV 219) and the Symphony no.36 in do major KV 425 ("Linz") - an enchanment from beginning to end. As a conductor, he flirts marvellously with the charms of the symphonies of the master of Salzburg.


Performers

Tibor Varga, director, violin
Orchestre du Festival Tibor Varga Sion

Tracklist :

01. Tibor Varga (Mozart) - Concerto pour violon et orchestre No. 5 (Allegro aperto)
02. Tibor Varga (Mozart) - Concerto pour violon et orchestre No. 5 (Adagio)
03. Tibor Varga (Mozart) - Concerto pour violon et orchestre No. 5 (Rondeau. Tempo di Menuetto)
04. Tibor Varga (Mozart) - Symphonie No. 36 (Adagio - Allegro spirituoso)
05. Tibor Varga (Mozart) - Symphonie No. 36 (Poco adagio)
06. Tibor Varga (Mozart) - Symphonie No. 36 (Menuetto)
07. Tibor Varga (Mozart) - Symphonie No. 36 (Finale - Presto)

Total time : 00:48:56

Log
Exact Audio Copy V0.99 prebeta 5 from 4. May 2009

EAC extraction logfile from 6. March 2010, 17:05

Tibor Varga / Tibor Varga - Tibor Varga Collection Vol. 03

Used drive : HL-DT-STDVD-RAM GSA-H55N Adapter: 5 ID: 0

Read mode : Burst

Read offset correction : 102
Overread into Lead-In and Lead-Out : No
Fill up missing offset samples with silence : Yes
Delete leading and trailing silent blocks : No
Null samples used in CRC calculations : No
Used interface : Native Win32 interface for Win NT & 2000
Gap handling : Not detected, thus appended to previous track

Used output format : User Defined Encoder
Selected bitrate : 768 kBit/s
Quality : High
Add ID3 tag : No
Command line compressor : C:\Program Files\Exact Audio Copy\FLAC\FLAC.EXE
Additional command line options : -8 -V -T "Artist=%a" -T "Title=%t" -T "Album=%g" -T "Date=%y" -T "Tacknumber=%n" -T "Genre=%m" %s -o %d


TOC of the extracted CD

Track | Start | Length | Start sector | End sector
---------------------------------------------------------
1 | 0:00.00 | 10:10.30 | 0 | 45779
2 | 10:10.30 | 10:59.63 | 45780 | 95267
3 | 21:10.18 | 8:59.15 | 95268 | 135707
4 | 30:09.33 | 11:25.09 | 135708 | 187091
5 | 41:34.42 | 11:49.33 | 187092 | 240299
6 | 53:24.00 | 3:56.12 | 240300 | 258011
7 | 57:20.12 | 8:00.12 | 258012 | 294023


Track 1

Filename D:\Ripped\01. Tibor Varga - Concerto pour violon et orchestre No. 5 (Allegro aperto).wav

Peak level 97.9 %
Copy CRC 8D43B4F1
Cannot be verified as accurate (confidence 1) [016CE206], AccurateRip returned [3085787B]
Copy finished

Track 2

Filename D:\Ripped\02. Tibor Varga - Concerto pour violon et orchestre No. 5 (Adagio).wav

Peak level 78.6 %
Copy CRC 4B8A6361
Cannot be verified as accurate (confidence 1) [657A9F6E], AccurateRip returned [D8FF7A29]
Copy finished

Track 3

Filename D:\Ripped\03. Tibor Varga - Concerto pour violon et orchestre No. 5 (Rondeau. Tempo di Menuetto).wav

Peak level 100.0 %
Copy CRC 74673026
Cannot be verified as accurate (confidence 1) [13C7F0DF], AccurateRip returned [AE1BE9B4]
Copy finished

Track 4

Filename D:\Ripped\04. Tibor Varga - Symphonie No. 36 (Adagio - Allegro spirituoso).wav

Peak level 100.0 %
Copy CRC 7EA7F09C
Cannot be verified as accurate (confidence 1) [0F3756C6], AccurateRip returned [0628D2D4]
Copy finished

Track 5

Filename D:\Ripped\05. Tibor Varga - Symphonie No. 36 (Poco adagio).wav

Peak level 98.8 %
Copy CRC 398B089D
Cannot be verified as accurate (confidence 1) [8ED6D046], AccurateRip returned [7D13B455]
Copy finished

Track 6

Filename D:\Ripped\06. Tibor Varga - Symphonie No. 36 (Menuetto).wav

Peak level 99.9 %
Copy CRC 42ED5180
Cannot be verified as accurate (confidence 1) [2964D6C1], AccurateRip returned [FD0EF2EC]
Copy finished

Track 7

Filename D:\Ripped\07. Tibor Varga - Symphonie No. 36 (Finale - Presto).wav

Peak level 100.0 %
Copy CRC 404DB6AB
Cannot be verified as accurate (confidence 1) [6DDCD884], AccurateRip returned [D3359780]
Copy finished


No tracks could be verified as accurate
You may have a different pressing from the one(s) in the database

No errors occurred

End of status report


Cue
REM GENRE Classical
REM DATE 1993
REM DISCID 4F0F5007
REM COMMENT "ExactAudioCopy v0.99pb5"
CATALOG 0000000000000
PERFORMER "Tibor Varga"
TITLE "Tibor Varga - Tibor Varga Collection Vol. 03"
FILE "01. Tibor Varga - Concerto pour violon et orchestre No. 5 (Allegro aperto).wav" WAVE
TRACK 01 AUDIO
TITLE "Concerto pour violon et orchestre No. 5 (Allegro aperto)"
PERFORMER "Tibor Varga"
INDEX 01 00:00:00
TRACK 02 AUDIO
TITLE "Concerto pour violon et orchestre No. 5 (Adagio)"
PERFORMER "Tibor Varga"
INDEX 00 10:10:09
FILE "02. Tibor Varga - Concerto pour violon et orchestre No. 5 (Adagio).wav" WAVE
INDEX 01 00:00:00
TRACK 03 AUDIO
TITLE "Concerto pour violon et orchestre No. 5 (Rondeau. Tempo di Menuetto)"
PERFORMER "Tibor Varga"
INDEX 00 10:59:42
FILE "03. Tibor Varga - Concerto pour violon et orchestre No. 5 (Rondeau. Tempo di Menuetto).wav" WAVE
INDEX 01 00:00:00
TRACK 04 AUDIO
TITLE "Symphonie No. 36 (Adagio - Allegro spirituoso)"
PERFORMER "Tibor Varga"
INDEX 00 07:55:11
FILE "04. Tibor Varga - Symphonie No. 36 (Adagio - Allegro spirituoso).wav" WAVE
INDEX 01 00:00:00
TRACK 05 AUDIO
TITLE "Symphonie No. 36 (Poco adagio)"
PERFORMER "Tibor Varga"
INDEX 00 11:24:63
FILE "05. Tibor Varga - Symphonie No. 36 (Poco adagio).wav" WAVE
INDEX 01 00:00:00
TRACK 06 AUDIO
TITLE "Symphonie No. 36 (Menuetto)"
PERFORMER "Tibor Varga"
INDEX 00 11:49:18
FILE "06. Tibor Varga - Symphonie No. 36 (Menuetto).wav" WAVE
INDEX 01 00:00:00
TRACK 07 AUDIO
TITLE "Symphonie No. 36 (Finale - Presto)"
PERFORMER "Tibor Varga"
INDEX 00 03:55:66
FILE "07. Tibor Varga - Symphonie No. 36 (Finale - Presto).wav" WAVE
INDEX 01 00:00:00


Tibor Varga's biography

Download (*)

Rapidshare

Part 1 | Part 2 | Part 3 | Part 4

Hotfile

Part 1 | Part 2 | Part 3 | Part 4

Deposit Files

Part 1 | Part 2 | Part 3 | Part 4

(*) Interchangeable links

NO MIRRORS PLEASE !!!

Also in this series :

Tibor Varga Collection No. 1 - Historic Recordings
Tibor Varga Collection No. 02 - Johann Sebastian Bach
ADVERTISING » Download fast « ADVERTISING
Posted By: zedda piras Date: 09 Mar 2022 16:39:34
Thank you very much fastposter for continuing this series!
Posted By: musician3 Date: 09 Mar 2022 19:44:53
Great.......Thank You
Posted By: InciFinci Date: 10 Mar 2022 16:42:11
Thank you for the series.
I'm sorry to say but there are som clicks in the tracks 4-7.
Posted By: fastposter Date: 11 Mar 2022 22:30:26
@InciFinci,

Don't be sorry, you're right: they are some (minor) clicks in tracks 4 --> 7, even if EAC logfile didn't report any problem. I'm sincerely sorry about this.
Anyway, i ripped the 4 tracks again, the logfile is OK and the graphical editing of the files with Audition 3.1 does not show any suspicious peak. I guess they are OK.
Here are the download links for those interested (Rapidshare/Hotfile/Deposit Files):

Part 1 (100 MB) http://www.multiupload.com/UZ36DK25R9
Part 2 (68 MB) http://www.multiupload.com/CIAODH38UZ
Recent searches:
DONATE AVAXHOME:

Donate please!