Loading...
Done
Home > Music > COLL Classical
Tibor Varga Collection No. 02 - Johann Sebastian Bach (1993) - UNRELEASED
Posted By : fastposter | Date : 07 Mar 2022 21:35:45 | Comments : 4
Tibor Varga Collection No. 02 - Johann Sebastian Bach (1993) - UNRELEASED

Tibor Varga Collection No. 02 - Johann Sebastian Bach (1993) - UNRELEASED
Classical | Instrumental | Violin/Piano | 1CD | FLAC | EAC | LOG+CUE | 236Mb
Tibor Varga Foundation/Philharmonia | Artwork + Leaflet scans EN/FR/DE (1200 dpi)

In 1974 Tibor Varga created the Tibor Varga Foundation which, in collaboration with the company Philharmonia, is the editor of this unreleased "Tibor Varga CD Collection". This collection of 24 CD's is distinguished as an artistic and historic documentation, in tribute to a great musician of world renown who profoundly affected the history of musical interpretation.

This second CD includes remarkable interpretations of J.S. Bach's Concerto for Violin in E major (BWV 1042), Concerto for Violin and Oboe in C minor(BWV 1060), and Concerto for Two Violins in D minor (BWV 1043) by Tibor Varga, Gilbert Varga, and Gernot Schmalfuss.


Performers

Tibor Varga, violin
Gilber Varga, piano
Gernot Schmalfuss, hautbois
Orchestre de chambre du Festival Tibor Varga Sion

Tracklist :

01. Tibor Varga (Bach) - Concerto pour violon et orchestre (Allegro)
02. Tibor Varga (Bach) - Concerto pour violon et orchestre (Adagio)
03. Tibor Varga (Bach) - Concerto pour violon et orchestre (Allegro assai)
04. Tibor Varga (Bach) - Concerto pour violon et hautbois (Allegro)
05. Tibor Varga (Bach) - Concerto pour violon et hautbois (Adagio)
06. Tibor Varga (Bach) - Concerto pour violon et hautbois (Allegro)
07. Tibor Varga (Bach) - Concerto pour 2 violons et orchestre (Vivace)
08. Tibor Varga (Bach) - Concerto pour 2 violons et orchestre (Largo ma non tanto)
09. Tibor Varga (Bach) - Concerto pour 2 violons et orchestre (Allegro)

Total time : 00:48:56

Log
Exact Audio Copy V0.99 prebeta 5 from 4. May 2009

EAC extraction logfile from 6. March 2010, 16:50

Tibor Varga / Tibor Varga Collection Vol. 02

Used drive : HL-DT-STDVD-RAM GSA-H55N Adapter: 5 ID: 0

Read mode : Burst

Read offset correction : 102
Overread into Lead-In and Lead-Out : No
Fill up missing offset samples with silence : Yes
Delete leading and trailing silent blocks : No
Null samples used in CRC calculations : No
Used interface : Native Win32 interface for Win NT & 2000
Gap handling : Not detected, thus appended to previous track

Used output format : User Defined Encoder
Selected bitrate : 768 kBit/s
Quality : High
Add ID3 tag : No
Command line compressor : C:\Program Files\Exact Audio Copy\FLAC\FLAC.EXE
Additional command line options : -8 -V -T "Artist=%a" -T "Title=%t" -T "Album=%g" -T "Date=%y" -T "Tacknumber=%n" -T "Genre=%m" %s -o %d


TOC of the extracted CD

Track | Start | Length | Start sector | End sector
---------------------------------------------------------
1 | 0:01.00 | 8:07.63 | 75 | 36662
2 | 8:08.63 | 7:02.06 | 36663 | 68318
3 | 15:10.69 | 2:48.48 | 68319 | 80966
4 | 17:59.42 | 5:15.63 | 80967 | 104654
5 | 23:15.30 | 5:59.03 | 104655 | 131582
6 | 29:14.33 | 3:50.54 | 131583 | 148886
7 | 33:05.12 | 3:47.39 | 148887 | 165950
8 | 36:52.51 | 7:03.51 | 165951 | 197726
9 | 43:56.27 | 4:59.27 | 197727 | 220178


Track 1

Filename D:\Ripped\01. Tibor Varga - Concerto pour violon et orchestre (Allegro).wav

Peak level 86.5 %
Copy CRC 92A24F8E
Track not present in AccurateRip database
Copy OK

Track 2

Filename D:\Ripped\02. Tibor Varga - Concerto pour violon et orchestre (Adagio).wav

Peak level 50.5 %
Copy CRC 2CC29BF5
Track not present in AccurateRip database
Copy finished

Track 3

Filename D:\Ripped\03. Tibor Varga - Concerto pour violon et orchestre (Allegro assai).wav

Peak level 62.8 %
Copy CRC F25ED995
Track not present in AccurateRip database
Copy finished

Track 4

Filename D:\Ripped\04. Tibor Varga - Concerto pour violon et hautbois (Allegro).wav

Peak level 49.7 %
Copy CRC CF94D7DB
Track not present in AccurateRip database
Copy finished

Track 5

Filename D:\Ripped\05. Tibor Varga - Concerto pour violon et hautbois (Adagio).wav

Peak level 30.8 %
Copy CRC F63BE510
Track not present in AccurateRip database
Copy finished

Track 6

Filename D:\Ripped\06. Tibor Varga - Concerto pour violon et hautbois (Allegro).wav

Peak level 52.2 %
Copy CRC D83D60B3
Track not present in AccurateRip database
Copy OK

Track 7

Filename D:\Ripped\07. Tibor Varga - Concerto pour 2 violons et orchestre (Vivace).wav

Peak level 60.9 %
Copy CRC 84FCAC9E
Track not present in AccurateRip database
Copy OK

Track 8

Filename D:\Ripped\08. Tibor Varga - Concerto pour 2 violons et orchestre (Largo ma non tanto).wav

Peak level 26.3 %
Copy CRC 5BC423F1
Track not present in AccurateRip database
Copy finished

Track 9

Filename D:\Ripped\09. Tibor Varga - Concerto pour 2 violons et orchestre (Allegro).wav

Peak level 51.9 %
Copy CRC A5C668ED
Track not present in AccurateRip database
Copy finished


None of the tracks are present in the AccurateRip database

No errors occurred

End of status report


Cue
REM GENRE Classical
REM DATE 1993
REM DISCID 820B7609
REM COMMENT "ExactAudioCopy v0.99pb5"
CATALOG 0000000000000
PERFORMER "Tibor Varga"
TITLE "Tibor Varga Collection Vol. 02"
FILE "01. Tibor Varga - Concerto pour violon et orchestre (Allegro).wav" WAVE
TRACK 01 AUDIO
TITLE "Concerto pour violon et orchestre (Allegro)"
PERFORMER "Tibor Varga"
PREGAP 00:01:00
INDEX 01 00:00:00
TRACK 02 AUDIO
TITLE "Concerto pour violon et orchestre (Adagio)"
PERFORMER "Tibor Varga"
INDEX 00 08:04:12
FILE "02. Tibor Varga - Concerto pour violon et orchestre (Adagio).wav" WAVE
INDEX 01 00:00:00
TRACK 03 AUDIO
TITLE "Concerto pour violon et orchestre (Allegro assai)"
PERFORMER "Tibor Varga"
INDEX 00 06:58:30
FILE "03. Tibor Varga - Concerto pour violon et orchestre (Allegro assai).wav" WAVE
INDEX 01 00:00:00
TRACK 04 AUDIO
TITLE "Concerto pour violon et hautbois (Allegro)"
PERFORMER "Tibor Varga"
INDEX 00 02:43:03
FILE "04. Tibor Varga - Concerto pour violon et hautbois (Allegro).wav" WAVE
INDEX 01 00:00:00
TRACK 05 AUDIO
TITLE "Concerto pour violon et hautbois (Adagio)"
PERFORMER "Tibor Varga"
INDEX 00 05:12:60
FILE "05. Tibor Varga - Concerto pour violon et hautbois (Adagio).wav" WAVE
INDEX 01 00:00:00
FILE "06. Tibor Varga - Concerto pour violon et hautbois (Allegro).wav" WAVE
TRACK 06 AUDIO
TITLE "Concerto pour violon et hautbois (Allegro)"
PERFORMER "Tibor Varga"
INDEX 01 00:00:00
TRACK 07 AUDIO
TITLE "Concerto pour 2 violons et orchestre (Vivace)"
PERFORMER "Tibor Varga"
INDEX 00 03:45:33
FILE "07. Tibor Varga - Concerto pour 2 violons et orchestre (Vivace).wav" WAVE
INDEX 01 00:00:00
TRACK 08 AUDIO
TITLE "Concerto pour 2 violons et orchestre (Largo ma non tanto)"
PERFORMER "Tibor Varga"
INDEX 00 03:44:60
FILE "08. Tibor Varga - Concerto pour 2 violons et orchestre (Largo ma non tanto).wav" WAVE
INDEX 01 00:00:00
TRACK 09 AUDIO
TITLE "Concerto pour 2 violons et orchestre (Allegro)"
PERFORMER "Tibor Varga"
INDEX 00 07:03:30
FILE "09. Tibor Varga - Concerto pour 2 violons et orchestre (Allegro).wav" WAVE
INDEX 01 00:00:00


Tibor Varga's biography is available here

Download (*)

Rapidshare

Part 1 | Part 2 | Part 3

Hotfile

Part 1 | Part 2 | Part 3

Deposit Files

Part 1 | Part 2 | Part 3

(*) Interchangeable links

NO MIRRORS PLEASE !!!

See also Tibor Varga Collection No. 1 - Historic Recordings

ADVERTISING » Download fast « ADVERTISING
Posted By: musician3 Date: 08 Mar 2022 01:50:17
Great.......Thank You
Posted By: muzhok Date: 08 Mar 2022 08:43:53
Thanks once again. Great performances all around!
Posted By: zedda piras Date: 08 Mar 2022 14:31:35
Thank you very much fastposter!
Posted By: AltvioolToon Date: 10 Mar 2022 14:15:39
Many thanks for no. 2
Recent searches:
DONATE AVAXHOME:

Donate please!