Loading...
Done
Home > Music > +Classical
Posted By : thingska | Date : 17 Sep 2021 23:00:01 | Comments : 2 |

Vladimir Sofronitsky - Edition: Historical Russian Archives [9CD Box Set] (2008)
9CD | EAC-Rip | APE-image +cue +log +Booklet/SCANS | June 17, 2022 | 1.3 Gb
Genre: Classic, Instrumental | RAR 3% Rec. | Label: Brilliant Classics | Hotfile, Fileserve

I collect Sofronitsky discs (he's really one of the greatest pianists of all time, in case you didn't already know), so let me first say something about the remastering quality. Brilliant Classics got rid of much noise and distortion at the cost of high frequencies (it all sounds "high-cut", making Sofronitsky less sprightly and colourful than he was), so these remasterings are sonically speaking not in the league of BMG's (in their own Russian Piano School series, or Philips's GPOC set) or Denon's (expensive, but inevitably the way to go if you want to get close to Sofronitsky's sonority - after all it's NOT all banging as some claim, he WAS a great colorist, and so thrillingly volatile), but they're as good as (albeit different from) those by Classound and Vista Vera (forget Arlecchino etc.).


My guess is that buying this box set, you'll risk becoming addicted with the music-making, and find yourself buying more anyhow. So, a little something on the performances included here:
First of all, if Sofronitsky ever recorded a heavy-handed/laboured Schubert D.960, then it's this 1956 studio recording (without first-movement exposition repeat), even if it's not bad at all, and certainly comes in quite good sound. But: the 1960 live performance (including first-movement exposition repeat) is really one of the finest the piece has ever got (seriously, I could even point you to classical web sites/blogs where it's voted #1) - it's a mystery to me why anyone would call it "boring" (if someone had said the same about the studio recording included here, I'd have shrugged that off).
The 1950 Schumann studio Carnaval here is is less volatile, thrilling and fun than the 1959 live performance (and it's debatable which includes more "banging"), more like other pianists' recordings, if not more mainstream in conception, and as such replaceable (and indeed, this box set would have been even better, had Sofronitsky's 1959 Symphonic Etudes been included instead). Having said that, it's not bad, but it won't prepare anyone for what Sofronitsky was like live.
The 1953 Beethoven Pastoral Sonata (now this IS a live performance minus applause - Brilliant Classics' discographic informations are really a bit haphazard) deserves being listened to carefully: it's really a forerunner to great modern interpretations such as Sokolov's (live in Paris, 2002), as odd as it must have sounded to non-Russian contemporaries when held against e.g. Schnabel's famous recording.
Chopin and Scriabin were Sofronitsky's favourite composers, and it shows. While the 1946 studio recording of Scriabin's 3rd Sonata may "only" be his fourth best (1958 live in Moscow, 1958 studio and 1952 live in Leningrad spring to mind), that probably still makes it the fourth best ever - it's that good! Much (but not all) of the 2 February 2022 Scriabin recital in Moscow is included here, where Sofronitsky played a virtual plethora of short pieces (including some of the finest Scriabin preludes on record), his finest performance of the 10th Sonata, and a very good 9th (truly great alternatives include a studio and a live one from 1958 - my favourites along with Horowitz's 1965 Carnegie Hall performance). The 1960 Andante from the 2nd Sonata is as heart-wrenching as it gets (but Brilliant Classics apparently didn't have access to that rare complete recording of the 2nd Sonata). Enough I hope to realise one really needs/wants to own all of Sofronitsky's Scriabin.
As to Chopin, a lot of Sofronitsky's best is NOT included in this box set (the Barcarolle, the 3rd Impromptu, the Op. 27 No. 1 Nocturne, the 1st Polonaise, a wonderful selection of Mazurkas and Waltzes recorded in 1960), but the famous selection of 10 Mazurkas and complete 24 Preludes from the legendary 1949 recital are here. Whether the latter do indeed rival Cortot, I'll leave to others to decide.
Not a very complete, let alone in-depth presentation of Sofronitsky's Scriabin and Chopin, then, but certainly a worthy introduction.
There are some otherwise difficult to find items in this collection, Schubert's Wanderer Fantasy and Sonata D.784 - oddly these seem directed at Sofronitsky completists rather than beginners (whom this box set will really suit most), and although not without interest (nothing Sofronitsky ever played is), one will find or already own more convincing recordings of either.
Also, this set includes some reference recordings of Schubert~Liszt Song Transcriptions (one will find more of those elsewhere), Borodin's Petite Suite and Prokofiev's Tales of an Old Grandmother. Great stuff!
Finally, a word on the recordings NOT included here: obviously, the 1960 D.960 would have been a better choice, and fans will miss what many consider Sofronitsky's greatest non-Scriabin performance, his 1959 Schumann Etudes Symphoniques. Other absent favourites include the live Schumann Sonata No. 1, some studio and live Schubert Impromptus; many fans will also miss Sofronitsky's Schumann Fantasy and Liszt Sonata and Gnomenreigen. Of course, there would always be more Chopin (see above) and Scriabin (e.g. sonata recordings, the Fantaisie Op. 28, Vers la Flamme etc.).



CD 1
ALEXANDRE SCRIABIN (1872-1915)
1. Prelude in C major Op. 11 No. 1 0:46
Piano Sonata No. 3 in F sharp minor Op. 23
2. Drammatico 6:05
3. Allegretto 2:26
4. Andante 4:38
5. Presto con fuoco 5:48
6. Piano Sonata No. 2 in G sharp minor Op. 19: andante 8:20
7. Poeme in D major Op. 32 No. 2 1:37
8. Poeme in C major Op. 44 No. 1 1:15
9. Ironies Op. 56 No. 2 2:23
10. Morceau Op. 57 No. 1 1:19
11. Polonaise in B flat minor Op. 21 7:10
12. Etude in F sharp major Op. 42 No. 4 2:44
13. Etude in D flat major Op. 42 No. 6 2:02
14. Waltz in A flat major Op. 38 6:07
15. Prelude in G major Op. 11 No. 3 0:52
16. Prelude in B minor Op. 11 No. 6 0:50
17. Prelude in A major Op. 11 No. 7 0:50
18. Prelude in F sharp minor Op. 11 No. 8 1:30
19. Prelude in B major Op. 11 No. 11 1:53
20. Prelude in G sharp minor Op. 11 No. 12 1:35
21. Prelude in G flat major Op. 11 No. 13 1:44
22. Prelude in A flat major Op. 11 No. 17 0:39
23. Prelude in C minor Op. 11 No. 20 1:01



CD 2
ALEXANDRE SCRIABIN (1872-1915)
1. Prelude in C major Op. 13 No. 1 2:16
2. Prelude in A minor Op. 11 No. 2 1:44
3. Prelude in G major Op. 13 No. 3 0:57
4. Prelude in E minor Op. 11 No. 4 1:28
5. Prelude in D major Op. 11 No. 5 1:23
6. Prelude in B minor Op. 13 No. 6 1:20
7. Prelude in A major Op. 15 No. 1 1:28
8. Prelude for the left hand in C sharp minor Op. 9 No. 1 2:31
9. Prelude in E major Op. 11 No. 9 1:11
10. Prelude in C sharp minor Op. 11 No. 10 0:59
11. Prelude in C sharp minor Op. 22 No. 2 0:52
12. Prelude in G sharp minor Op. 16 No. 2 1:14
13. Prelude in F sharp major Op. 16 No. 5 0:34
14. Prelude in E flat minor Op. 16 No. 4 0:57
15. Prelude in D flat major Op. 11 No. 15 1:42
16. Prelude in B flat minor Op. 11 No. 16 1:33
17. Prelude in E flat major Op. 11 No. 19 1:06
18. Prelude in B flat major Op. 11 No. 21 1:21
19. Prelude in G minor Op. 11 No. 22 0:54
20. Prelude in D minor Op. 11 No. 24 1:26
21. Poeme in C major Op. 52 No. 1 1:55
22. Poeme Op. 59 No. 1 1:30
23. Poeme Aile Op. 51 No. 3 0:48
24. Poeme languide Op. 52 No. 3 1:46
25. Masque Op. 63 No. 1 0:59
26. Poeme satanique Op. 36 6:09
27. Piano Sonata No. 9 Op. 68 “Black Mass” 7:57
28. Poeme Op. 69 No. 1 1:34
29. Poeme Op. 69 No. 2 1:09
30. Flammes sombres Op. 73 No. 2 1:50
31. Guirlandes Op. 73 No. 1 2:29
32. Piano Sonata No. 10 Op. 70 11:10
33. Fragilite Op. 51 No. 1 1:53
34. Feuillet d’album in E flat major Op. 45 No. 11:21
35. Etude in C sharp minor Op. 42 No. 5 3:10
36. Mazurka in F sharp major Op. 40 No. 2 1:10
37. Etude in D sharp minor Op. 8 No. 12 2:42



CD 3
ALEXANDER BORODIN (1833-1887)
Petite Suite
1. Au Convent 4:18
2. Intermezzo 3:09
3. Mazurka 2:35
4. Mazurka 2:45
5. Reverie 1:37
6. Serenade 1:30
7. Nocturne 2:28
SERGEI PROKOFIEV (1891-1953)
Tales of an Old Grandmother Op. 31
8. Moderato 2:02
9. Andantino 1:06
10. Andante assai 2:41
11. Sostenuto 2:49
SERGEI RACHMANINOFF (1873-1943)
12. Moment Musical Op. 16 No. 3, andante cantabile 4:42
13. Moment Musical, Op. 16 No. 5, adagio sostenuto 3:58
14. Etude-tableau in C major Op. 33 No. 2, allegro 2:24
15. Etude-tableau in G minor Op. 33 No. 8, moderato 3:32
16. Etude-tableau in B minor Op. 39 No. 4, allegro assai 2:29
17. Etude-tableau in E flat minor Op. 39 No. 5, appassionato 4:38
18. Etude-tableau in A minor Op. 39 No. 6, allegro 2:42



CD 4
FREDERIC CHOPIN (1810-1849)
1. Mazurka in A minor Op. 67 No. 4 2:47
2. Mazurka in E major Op. 6 No. 3 1:37
3. Mazurka in E minor Op. 41 No. 2 2:04
4. Mazurka in B flat major Op. 17 No. 1 1:58
5. Mazurka in G sharp minor Op. 33 No. 1 1:29
6. Mazurka in E flat minor Op. 6 No. 4 0:45
7. Mazurka in B major Op. 63 No. 1 1:53
8. Mazurka in F minor Op. 63 No. 2 1:40
9. Mazurka in F major Op. 68 No. 3 1:22
10. Mazurka in C major Op. 68 No. 1 1:35
11. Mazurka in A minor Op. 68 No. 2 2:30
12. Mazurka in D flat major Op. 30 No. 3 2:32
13. Mazurka in C sharp minor Op. 30 No. 4 3:30
14. Mazurka in C sharp minor Op. 41 No. 1 3:05
15. Mazurka in G minor Op. 24 No. 1 3:03
16. Mazurka in C major Op. 33 No. 3 2:56
17. Waltz in A flat major Op. 64 No. 3 2:04
18. Waltz in D flat major Op. 70 No. 3 3:37
19. Waltz in F minor Op. 70 No. 2 2:31
20. Waltz in D flat major Op. 64 No. 1 2:04
21. Ballade No. 3 in A flat major Op. 47 7:21
22. Scherzo No. 1 in B minor Op. 20 11:03



CD 5
FREDERIC CHOPIN (1810-1849)
24 PRELUDES Op. 28
1. No. 1 in C major 0:35
2. No. 2 in A minor 2:21
3. No. 3 in G major 0:52
4. No. 4 in E minor 2:05
5. No. 5 in D major 0:28
6. No. 6 in B minor 2:08
7. No. 7 in A major 0:46
8. No. 8 in F sharp minor 2:05
9. No. 9 in E major 1:26
10. No. 10 in C sharp minor 0:29
11. No. 11 in B major 0:39
12. No. 12 in G sharp minor 1:14
13. No. 13 in F sharp major 3:19
14. No. 14 in E flat minor 0:33
15. No. 15 in D flat major 6:00
16. No. 16 in B flat minor 1:06
17. No. 17 in A flat major 3:01
18. No. 18 in F minor 1:05
19. No. 19 in E flat major 1:13
20. No. 20 in C minor 1:45
21. No. 21 in B flat major 2:02
22. No. 22 in G minor 0:44
23. No. 23 in F major 0:55
24. No. 24 in D minor 2:31
25. Polonaise No. 6 in A flat major Op. 53 “Heroic” 7:21
26. Polonaise No. 1 in C sharp minor Op. 26 No. 1 6:51
27. Etude in E flat minor Op. 10 No. 6. 3:30
28. Etude in E major Op. 10 No. 3 4:08
29. Etude in F major Op. 25 No. 3 1:50



CD 6
FREDERIC CHOPIN (1810-1849)
1. Nocturne in E flat major Op. 9 No. 2 4:41
2. Nocturne in G major Op. 37 No. 2 5:46
3. Nocturne in C minor Op. 48 No. 1 6:10
LUDWIG VAN BEETHOVEN (1770-1827)
Piano Sonata in D major Op. 28 “Pastoral”
4. Allegro 10:32
5. Andante 7:52
6. Allegro vivace 2:40
7. Rondo, allegro ma non troppo 4:54
FELIX MENDELSSOHN (1809-1847)
8. Variations serieuses, Op. 54 11:16



CD 7
FRANZ LISZT (1811-1886)
1. Eglogue, from “Annees de Pelerinage,Year 1: Switzerland” 2:45
Annees de Pelerinage , 2-nd Year: Italy
2. Sposalizio 8:42
3. Il Penseroso 4:31
4. Canzonetta del Salvator Rosa 2:58
5. Sonetto 123 del Petrarca 6:45
SCHUBERT SONGS, transcribed by Franz Liszt
6. Die Stadt 2:32
7. Die junge Nonne 4:45
8. Am Meer 4:04
9. Fruhlingsglaube 3:31
10. Auf dem Wasser zu singen 4:14
11. Der Doppelganger 4:12
12. Erlkonig 4:51



CD 8
FRANZ SCHUBERT (1797-1828)
Piano Sonata in B flat major D 960
1. Molto moderato 14:03
2. Andante sostenuto 11:09
3. Scherzo, allegro vivace 3:50
4. Allegro ma non troppo 7:35
Piano Sonata in A minor D784
5. Allegro giusto 10:18
6. Andante 4:05
7. Allegro vivace 4:55
8. Impromptu in G flat major Op. 90 No. 3 6:48



CD 9
FRANZ SCHUBERT (1797-1828)
Wanderer Fantasy in C major Op.15 D 760
1. Allegro con fuoco ma non troppo 5:53
2. Adagio 6:22
3. Presto 4:41
4. Allegro 3:41
ROBERT SCHUMANN (1810-1856)
3 Pieces from Bunte Blatter Op. 99
5. Nicht schnell, mit Innigkeit 2:08
6. Sehr rasch 0:48
7. Frisch 0:54
Carnaval Op. 9
8. Preambule 2:22
9. Pierrot 1:45
10. Arlequin 1:15
11. Valse noble 1:54
12. Eusebius 1:40
13. Florestan 0:54
14. Coquette 1:32
15. Replique 1:28
16. Papillons 0:47
17. A.S.C.H-S.C.H.A 0:53
18. Chiarina 1:36
19. Chopin 1:24
20. Estrella 0:24
21. Reconnaissance 1:47
22. Pantalon et Colombine 1:01
23. Valse allemande 0:59
24. Paganini 1:29
25. Aveu 0:57
26. Promenade 4:13
27. Pause 0:18
28. Marche des Davidsbundler contre les Philistins 3:35


EAC LOG CD1
Exact Audio Copy V0.99 prebeta 4 from 23. January 2008

Отчёт EAC об извлечении, выполненном 3. сентября 2008, 16:36

Vladimir Sofronitzky / Sofronitzky Edition CD 01

Дисковод: SONY DVD RW AW-G170A Adapter: 0 ID: 0

Режим чтения : Достоверность
Использование точного потока : Да
Отключение кэша аудио : Да
Использование указателей C2 : Нет

Коррекция смещения при чтении : 48
Способность читать области Lead-in и Lead-out : Нет
Заполнение пропущенных сэмплов тишиной : Да
Удаление блоков с тишиной в начале и конце : Нет
При вычислениях CRC использовались нулевые сэмплы : Нет
Интерфейс : Встроенный Win32-интерфейс для Win NT/2000

Выходной формат : Внутренние WAV-операции
Формат сэмплов : 44.100 Гц; 16 бит; стерео

TOC извлечённого CD

Трек | Старт | Длительность | Начальный сектор | Конечный сектор
---------------------------------------------------------------------
1 | 0:00.00 | 0:46.13 | 0 | 3462
2 | 0:46.13 | 6:05.46 | 3463 | 30883
3 | 6:51.59 | 2:26.18 | 30884 | 41851
4 | 9:18.02 | 4:38.52 | 41852 | 62753
5 | 13:56.54 | 5:48.35 | 62754 | 88888
6 | 19:45.14 | 8:20.03 | 88889 | 126391
7 | 28:05.17 | 1:37.27 | 126392 | 133693
8 | 29:42.44 | 1:15.37 | 133694 | 139355
9 | 30:58.06 | 2:23.60 | 139356 | 150140
10 | 33:21.66 | 1:19.14 | 150141 | 156079
11 | 34:41.05 | 7:10.21 | 156080 | 188350
12 | 41:51.26 | 2:44.70 | 188351 | 200720
13 | 44:36.21 | 2:02.63 | 200721 | 209933
14 | 46:39.09 | 6:07.31 | 209934 | 237489
15 | 52:46.40 | 0:52.25 | 237490 | 241414
16 | 53:38.65 | 0:50.27 | 241415 | 245191
17 | 54:29.17 | 0:50.30 | 245192 | 248971
18 | 55:19.47 | 1:30.48 | 248972 | 255769
19 | 56:50.20 | 1:53.61 | 255770 | 264305
20 | 58:44.06 | 1:35.34 | 264306 | 271464
21 | 60:19.40 | 1:44.12 | 271465 | 279276
22 | 62:03.52 | 0:39.73 | 279277 | 282274
23 | 62:43.50 | 1:01.02 | 282275 | 286851

Характеристики диапазона извлечения и сообщения об ошибках

Выбранный диапазон

Имя файла C:\Sofronitsky-BrillliantClassics\CD1\Vladimir Sofronitzky - Sofronitzky Edition CD 01.wav

Пиковый уровень 68.0 %
Качество диапазона 99.9 %
CRC копии BCA2D168
Копирование... OK

Ошибок не произошло

Конец отчёта

EAC LOG CD2
Exact Audio Copy V0.99 prebeta 4 from 23. January 2008

Отчёт EAC об извлечении, выполненном 3. сентября 2008, 17:04

Vladimir Sofronitzky / Sofronitzky Edition CD 02

Дисковод: SONY DVD RW AW-G170A Adapter: 0 ID: 0

Режим чтения : Достоверность
Использование точного потока : Да
Отключение кэша аудио : Да
Использование указателей C2 : Нет

Коррекция смещения при чтении : 48
Способность читать области Lead-in и Lead-out : Нет
Заполнение пропущенных сэмплов тишиной : Да
Удаление блоков с тишиной в начале и конце : Нет
При вычислениях CRC использовались нулевые сэмплы : Нет
Интерфейс : Встроенный Win32-интерфейс для Win NT/2000

Выходной формат : Внутренние WAV-операции
Формат сэмплов : 44.100 Гц; 16 бит; стерео

TOC извлечённого CD

Трек | Старт | Длительность | Начальный сектор | Конечный сектор
---------------------------------------------------------------------
1 | 0:00.00 | 2:14.69 | 0 | 10118
2 | 2:14.69 | 1:44.00 | 10119 | 17918
3 | 3:58.69 | 0:57.73 | 17919 | 22266
4 | 4:56.67 | 1:28.49 | 22267 | 28915
5 | 6:25.41 | 1:23.02 | 28916 | 35142
6 | 7:48.43 | 1:20.74 | 35143 | 41216
7 | 9:09.42 | 1:28.32 | 41217 | 47848
8 | 10:37.74 | 2:31.34 | 47849 | 59207
9 | 13:09.33 | 1:11.18 | 59208 | 64550
10 | 14:20.51 | 0:59.56 | 64551 | 69031
11 | 15:20.32 | 0:52.56 | 69032 | 72987
12 | 16:13.13 | 1:14.22 | 72988 | 78559
13 | 17:27.35 | 0:34.65 | 78560 | 81174
14 | 18:02.25 | 0:57.30 | 81175 | 85479
15 | 18:59.55 | 1:42.34 | 85480 | 93163
16 | 20:42.14 | 1:33.01 | 93164 | 100139
17 | 22:15.15 | 1:06.66 | 100140 | 105155
18 | 23:22.06 | 1:21.54 | 105156 | 111284
19 | 24:43.60 | 0:54.51 | 111285 | 115385
20 | 25:38.36 | 1:26.32 | 115386 | 121867
21 | 27:04.68 | 1:55.69 | 121868 | 130561
22 | 29:00.62 | 1:30.17 | 130562 | 137328
23 | 30:31.04 | 0:48.50 | 137329 | 140978
24 | 31:19.54 | 0:46.73 | 140979 | 144501
25 | 32:06.52 | 0:59.03 | 144502 | 148929
26 | 33:05.55 | 6:09.41 | 148930 | 176645
27 | 39:15.21 | 7:57.30 | 176646 | 212450
28 | 47:12.51 | 1:34.38 | 212451 | 219538
29 | 48:47.14 | 1:09.70 | 219539 | 224783
30 | 49:57.09 | 1:50.64 | 224784 | 233097
31 | 51:47.73 | 2:29.26 | 233098 | 244298
32 | 54:17.24 | 11:10.66 | 244299 | 294614
33 | 65:28.15 | 1:53.35 | 294615 | 303124
34 | 67:21.50 | 1:21.15 | 303125 | 309214
35 | 68:42.65 | 3:10.52 | 309215 | 323516
36 | 71:53.42 | 1:10.16 | 323517 | 328782
37 | 73:03.58 | 2:42.44 | 328783 | 340976

Характеристики диапазона извлечения и сообщения об ошибках

Выбранный диапазон

Имя файла C:\Sofronitsky-BrillliantClassics\CD2\Vladimir Sofronitzky - Sofronitzky Edition CD 02.wav

Пиковый уровень 100.0 %
Качество диапазона 100.0 %
CRC копии EDF46936
Копирование... OK

Ошибок не произошло

Конец отчёта

EAC LOG CD3
Exact Audio Copy V0.99 prebeta 4 from 23. January 2008

Отчёт EAC об извлечении, выполненном 3. сентября 2008, 17:17

Vladimir Sofronitzky / Sofronitzky Edition CD 03

Дисковод: SONY DVD RW AW-G170A Adapter: 0 ID: 0

Режим чтения : Достоверность
Использование точного потока : Да
Отключение кэша аудио : Да
Использование указателей C2 : Нет

Коррекция смещения при чтении : 48
Способность читать области Lead-in и Lead-out : Нет
Заполнение пропущенных сэмплов тишиной : Да
Удаление блоков с тишиной в начале и конце : Нет
При вычислениях CRC использовались нулевые сэмплы : Нет
Интерфейс : Встроенный Win32-интерфейс для Win NT/2000

Выходной формат : Внутренние WAV-операции
Формат сэмплов : 44.100 Гц; 16 бит; стерео

TOC извлечённого CD

Трек | Старт | Длительность | Начальный сектор | Конечный сектор
---------------------------------------------------------------------
1 | 0:00.00 | 4:16.21 | 0 | 19220
2 | 4:16.21 | 3:09.06 | 19221 | 33401
3 | 7:25.27 | 2:35.22 | 33402 | 45048
4 | 10:00.49 | 2:45.68 | 45049 | 57491
5 | 12:46.42 | 1:37.52 | 57492 | 64818
6 | 14:24.19 | 1:30.58 | 64819 | 71626
7 | 15:55.02 | 2:28.67 | 71627 | 82793
8 | 18:23.69 | 2:02.59 | 82794 | 92002
9 | 20:26.53 | 1:06.31 | 92003 | 96983
10 | 21:33.09 | 2:41.69 | 96984 | 109127
11 | 24:15.03 | 2:49.60 | 109128 | 121862
12 | 27:04.63 | 4:42.03 | 121863 | 143015
13 | 31:46.66 | 3:58.29 | 143016 | 160894
14 | 35:45.20 | 2:24.70 | 160895 | 171764
15 | 38:10.15 | 3:32.49 | 171765 | 187713
16 | 41:42.64 | 2:29.15 | 187714 | 198903
17 | 44:12.04 | 4:38.39 | 198904 | 219792
18 | 48:50.43 | 2:42.18 | 219793 | 231960

Характеристики диапазона извлечения и сообщения об ошибках

Выбранный диапазон

Имя файла C:\Sofronitsky-BrillliantClassics\CD3\Vladimir Sofronitzky - Sofronitzky Edition CD 03.wav

Пиковый уровень 78.9 %
Качество диапазона 100.0 %
CRC копии 9D5F6599
Копирование... OK

Ошибок не произошло

Конец отчёта

EAC LOG CD4
Exact Audio Copy V0.99 prebeta 4 from 23. January 2008

Отчёт EAC об извлечении, выполненном 3. сентября 2008, 17:32

Vladimir Sofronitzky / Sofronitzky Edition CD 04

Дисковод: SONY DVD RW AW-G170A Adapter: 0 ID: 0

Режим чтения : Достоверность
Использование точного потока : Да
Отключение кэша аудио : Да
Использование указателей C2 : Нет

Коррекция смещения при чтении : 48
Способность читать области Lead-in и Lead-out : Нет
Заполнение пропущенных сэмплов тишиной : Да
Удаление блоков с тишиной в начале и конце : Нет
При вычислениях CRC использовались нулевые сэмплы : Нет
Интерфейс : Встроенный Win32-интерфейс для Win NT/2000

Выходной формат : Внутренние WAV-операции
Формат сэмплов : 44.100 Гц; 16 бит; стерео

TOC извлечённого CD

Трек | Старт | Длительность | Начальный сектор | Конечный сектор
---------------------------------------------------------------------
1 | 0:00.00 | 2:45.35 | 0 | 12409
2 | 2:45.35 | 1:37.25 | 12410 | 19709
3 | 4:22.60 | 2:04.31 | 19710 | 29040
4 | 6:27.16 | 1:58.31 | 29041 | 37921
5 | 8:25.47 | 1:29.03 | 37922 | 44599
6 | 9:54.50 | 0:45.32 | 44600 | 48006
7 | 10:40.07 | 1:53.47 | 48007 | 56528
8 | 12:33.54 | 1:40.64 | 56529 | 64092
9 | 14:14.43 | 1:22.47 | 64093 | 70289
10 | 15:37.15 | 1:35.36 | 70290 | 77450
11 | 17:12.51 | 2:30.13 | 77451 | 88713
12 | 19:42.64 | 2:32.17 | 88714 | 100130
13 | 22:15.06 | 3:30.66 | 100131 | 115946
14 | 25:45.72 | 3:05.22 | 115947 | 129843
15 | 28:51.19 | 3:03.11 | 129844 | 143579
16 | 31:54.30 | 2:04.43 | 143580 | 152922
17 | 33:58.73 | 2:56.49 | 152923 | 166171
18 | 36:55.47 | 3:37.34 | 166172 | 182480
19 | 40:33.06 | 2:31.71 | 182481 | 193876
20 | 43:05.02 | 2:04.19 | 193877 | 203195
21 | 45:09.21 | 7:21.56 | 203196 | 236326
22 | 52:31.02 | 11:03.22 | 236327 | 286073

Характеристики диапазона извлечения и сообщения об ошибках

Выбранный диапазон

Имя файла C:\Sofronitsky-BrillliantClassics\CD4\Vladimir Sofronitzky - Sofronitzky Edition CD 04.wav

Пиковый уровень 100.0 %
Качество диапазона 100.0 %
CRC копии 6A1FA1D3
Копирование... OK

Ошибок не произошло

Конец отчёта

EAC LOG CD5
Exact Audio Copy V0.99 prebeta 4 from 23. January 2008

Отчёт EAC об извлечении, выполненном 3. сентября 2008, 17:47

Vladimir Sofronitzky / Sofronitzky Edition CD 05

Дисковод: SONY DVD RW AW-G170A Adapter: 0 ID: 0

Режим чтения : Достоверность
Использование точного потока : Да
Отключение кэша аудио : Да
Использование указателей C2 : Нет

Коррекция смещения при чтении : 48
Способность читать области Lead-in и Lead-out : Нет
Заполнение пропущенных сэмплов тишиной : Да
Удаление блоков с тишиной в начале и конце : Нет
При вычислениях CRC использовались нулевые сэмплы : Нет
Интерфейс : Встроенный Win32-интерфейс для Win NT/2000

Выходной формат : Внутренние WAV-операции
Формат сэмплов : 44.100 Гц; 16 бит; стерео

TOC извлечённого CD

Трек | Старт | Длительность | Начальный сектор | Конечный сектор
---------------------------------------------------------------------
1 | 0:00.00 | 0:33.26 | 0 | 2500
2 | 0:33.26 | 2:21.00 | 2501 | 13075
3 | 2:54.26 | 0:52.70 | 13076 | 17045
4 | 3:47.21 | 2:05.24 | 17046 | 26444
5 | 5:52.45 | 0:28.39 | 26445 | 28583
6 | 6:21.09 | 2:08.08 | 28584 | 38191
7 | 8:29.17 | 0:46.62 | 38192 | 41703
8 | 9:16.04 | 2:05.62 | 41704 | 51140
9 | 11:21.66 | 1:26.35 | 51141 | 57625
10 | 12:48.26 | 0:29.33 | 57626 | 59833
11 | 13:17.59 | 0:39.42 | 59834 | 62800
12 | 13:57.26 | 1:14.22 | 62801 | 68372
13 | 15:11.48 | 3:19.24 | 68373 | 83321
14 | 18:30.72 | 0:33.13 | 83322 | 85809
15 | 19:04.10 | 6:00.10 | 85810 | 112819
16 | 25:04.20 | 1:06.08 | 112820 | 117777
17 | 26:10.28 | 3:01.33 | 117778 | 131385
18 | 29:11.61 | 1:05.50 | 131386 | 136310
19 | 30:17.36 | 1:13.65 | 136311 | 141850
20 | 31:31.26 | 1:45.01 | 141851 | 149726
21 | 33:16.27 | 2:02.74 | 149727 | 158950
22 | 35:19.26 | 0:44.54 | 158951 | 162304
23 | 36:04.05 | 0:55.48 | 162305 | 166477
24 | 36:59.53 | 2:31.62 | 166478 | 177864
25 | 39:31.40 | 7:21.12 | 177865 | 210951
26 | 46:52.52 | 6:51.55 | 210952 | 241831
27 | 53:44.32 | 3:30.35 | 241832 | 257616
28 | 57:14.67 | 4:08.34 | 257617 | 276250
29 | 61:23.26 | 1:50.57 | 276251 | 284557

Характеристики диапазона извлечения и сообщения об ошибках

Выбранный диапазон

Имя файла C:\Sofronitsky-BrillliantClassics\CD5\Vladimir Sofronitzky - Sofronitzky Edition CD 05.wav

Пиковый уровень 76.4 %
Качество диапазона 100.0 %
CRC копии 8EF5D4BD
Копирование... OK

Ошибок не произошло

Конец отчёта

EAC LOG CD6
Exact Audio Copy V0.99 prebeta 4 from 23. January 2008

Отчёт EAC об извлечении, выполненном 3. сентября 2008, 18:00

Vladimir Sofronitzky / Sofronitzky Edition CD 06

Дисковод: SONY DVD RW AW-G170A Adapter: 0 ID: 0

Режим чтения : Достоверность
Использование точного потока : Да
Отключение кэша аудио : Да
Использование указателей C2 : Нет

Коррекция смещения при чтении : 48
Способность читать области Lead-in и Lead-out : Нет
Заполнение пропущенных сэмплов тишиной : Да
Удаление блоков с тишиной в начале и конце : Нет
При вычислениях CRC использовались нулевые сэмплы : Нет
Интерфейс : Встроенный Win32-интерфейс для Win NT/2000

Выходной формат : Внутренние WAV-операции
Формат сэмплов : 44.100 Гц; 16 бит; стерео

TOC извлечённого CD

Трек | Старт | Длительность | Начальный сектор | Конечный сектор
---------------------------------------------------------------------
1 | 0:00.00 | 4:39.15 | 0 | 20939
2 | 4:39.15 | 5:46.33 | 20940 | 46922
3 | 10:25.48 | 6:10.03 | 46923 | 74675
4 | 16:35.51 | 10:32.13 | 74676 | 122088
5 | 27:07.64 | 7:52.30 | 122089 | 157518
6 | 35:00.19 | 2:40.23 | 157519 | 169541
7 | 37:40.42 | 4:54.39 | 169542 | 191630
8 | 42:35.06 | 11:16.40 | 191631 | 242370

Характеристики диапазона извлечения и сообщения об ошибках

Выбранный диапазон

Имя файла C:\Sofronitsky-BrillliantClassics\CD6\Vladimir Sofronitzky - Sofronitzky Edition CD 06.wav

Пиковый уровень 79.3 %
Качество диапазона 100.0 %
CRC копии 51409DD8
Копирование... OK

Ошибок не произошло

Конец отчёта

EAC LOG CD7
Exact Audio Copy V0.99 prebeta 4 from 23. January 2008

Отчёт EAC об извлечении, выполненном 3. сентября 2008, 18:13

Vladimir Sofronitzky / Sofronitzky Edition CD 07

Дисковод: SONY DVD RW AW-G170A Adapter: 0 ID: 0

Режим чтения : Достоверность
Использование точного потока : Да
Отключение кэша аудио : Да
Использование указателей C2 : Нет

Коррекция смещения при чтении : 48
Способность читать области Lead-in и Lead-out : Нет
Заполнение пропущенных сэмплов тишиной : Да
Удаление блоков с тишиной в начале и конце : Нет
При вычислениях CRC использовались нулевые сэмплы : Нет
Интерфейс : Встроенный Win32-интерфейс для Win NT/2000

Выходной формат : Внутренние WAV-операции
Формат сэмплов : 44.100 Гц; 16 бит; стерео

TOC извлечённого CD

Трек | Старт | Длительность | Начальный сектор | Конечный сектор
---------------------------------------------------------------------
1 | 0:00.00 | 2:43.08 | 0 | 12232
2 | 2:43.08 | 8:42.33 | 12233 | 51415
3 | 11:25.41 | 4:31.40 | 51416 | 71780
4 | 15:57.06 | 2:58.25 | 71781 | 85155
5 | 18:55.31 | 6:45.50 | 85156 | 115580
6 | 25:41.06 | 2:32.12 | 115581 | 126992
7 | 28:13.18 | 4:45.52 | 126993 | 148419
8 | 32:58.70 | 4:04.23 | 148420 | 166742
9 | 37:03.18 | 3:31.64 | 166743 | 182631
10 | 40:35.07 | 4:14.07 | 182632 | 201688
11 | 44:49.14 | 4:12.24 | 201689 | 220612
12 | 49:01.38 | 4:51.46 | 220613 | 242483

Характеристики диапазона извлечения и сообщения об ошибках

Выбранный диапазон

Имя файла C:\Sofronitsky-BrillliantClassics\CD7\Vladimir Sofronitzky - Sofronitzky Edition CD 07.wav

Пиковый уровень 74.3 %
Качество диапазона 100.0 %
CRC копии B4FD8628
Копирование... OK

Ошибок не произошло

Конец отчёта

EAC LOG CD8
Exact Audio Copy V0.99 prebeta 4 from 23. January 2008

Отчёт EAC об извлечении, выполненном 3. сентября 2008, 18:26

Vladimir Sofronitzky / Sofronitzky Edition CD 08

Дисковод: SONY DVD RW AW-G170A Adapter: 0 ID: 0

Режим чтения : Достоверность
Использование точного потока : Да
Отключение кэша аудио : Да
Использование указателей C2 : Нет

Коррекция смещения при чтении : 48
Способность читать области Lead-in и Lead-out : Нет
Заполнение пропущенных сэмплов тишиной : Да
Удаление блоков с тишиной в начале и конце : Нет
При вычислениях CRC использовались нулевые сэмплы : Нет
Интерфейс : Встроенный Win32-интерфейс для Win NT/2000

Выходной формат : Внутренние WAV-операции
Формат сэмплов : 44.100 Гц; 16 бит; стерео

TOC извлечённого CD

Трек | Старт | Длительность | Начальный сектор | Конечный сектор
---------------------------------------------------------------------
1 | 0:00.00 | 14:01.34 | 0 | 63108
2 | 14:01.34 | 11:09.72 | 63109 | 113355
3 | 25:11.31 | 3:50.08 | 113356 | 130613
4 | 29:01.39 | 7:35.67 | 130614 | 164805
5 | 36:37.31 | 10:18.46 | 164806 | 211201
6 | 46:56.02 | 4:05.22 | 211202 | 229598
7 | 51:01.24 | 4:55.23 | 229599 | 251746
8 | 55:56.47 | 6:48.63 | 251747 | 282409

Характеристики диапазона извлечения и сообщения об ошибках

Выбранный диапазон

Имя файла C:\Sofronitsky-BrillliantClassics\CD8\Vladimir Sofronitzky - Sofronitzky Edition CD 08.wav

Пиковый уровень 100.0 %
Качество диапазона 100.0 %
CRC копии 2DFC8A64
Копирование... OK

Ошибок не произошло

Конец отчёта

EAC LOG CD9
Exact Audio Copy V0.99 prebeta 4 from 23. January 2008

Отчёт EAC об извлечении, выполненном 3. сентября 2008, 18:42

Vladimir Sofronitzky / Sofronitzky Edition CD 09

Дисковод: SONY DVD RW AW-G170A Adapter: 0 ID: 0

Режим чтения : Достоверность
Использование точного потока : Да
Отключение кэша аудио : Да
Использование указателей C2 : Нет

Коррекция смещения при чтении : 48
Способность читать области Lead-in и Lead-out : Нет
Заполнение пропущенных сэмплов тишиной : Да
Удаление блоков с тишиной в начале и конце : Нет
При вычислениях CRC использовались нулевые сэмплы : Нет
Интерфейс : Встроенный Win32-интерфейс для Win NT/2000

Выходной формат : Внутренние WAV-операции
Формат сэмплов : 44.100 Гц; 16 бит; стерео

TOC извлечённого CD

Трек | Старт | Длительность | Начальный сектор | Конечный сектор
---------------------------------------------------------------------
1 | 0:00.00 | 5:51.30 | 0 | 26354
2 | 5:51.30 | 6:22.69 | 26355 | 55073
3 | 12:14.24 | 4:41.42 | 55074 | 76190
4 | 16:55.66 | 3:41.39 | 76191 | 92804
5 | 20:37.30 | 2:08.01 | 92805 | 102405
6 | 22:45.31 | 0:48.09 | 102406 | 106014
7 | 23:33.40 | 0:54.32 | 106015 | 110096
8 | 24:27.72 | 2:22.34 | 110097 | 120780
9 | 26:50.31 | 1:45.56 | 120781 | 128711
10 | 28:36.12 | 1:15.64 | 128712 | 134400
11 | 29:52.01 | 1:54.32 | 134401 | 142982
12 | 31:46.33 | 1:40.68 | 142983 | 150550
13 | 33:27.26 | 0:54.00 | 150551 | 154600
14 | 34:21.26 | 1:32.24 | 154601 | 161524
15 | 35:53.50 | 1:28.58 | 161525 | 168182
16 | 37:22.33 | 0:47.07 | 168183 | 171714
17 | 38:09.40 | 0:53.32 | 171715 | 175721
18 | 39:02.72 | 1:36.11 | 175722 | 182932
19 | 40:39.08 | 1:24.45 | 182933 | 189277
20 | 42:03.53 | 0:24.48 | 189278 | 191125
21 | 42:28.26 | 1:47.61 | 191126 | 199211
22 | 44:16.12 | 1:01.24 | 199212 | 203810
23 | 45:17.36 | 0:59.49 | 203811 | 208284
24 | 46:17.10 | 1:29.68 | 208285 | 215027
25 | 47:47.03 | 0:57.27 | 215028 | 219329
26 | 48:44.30 | 4:13.30 | 219330 | 238334
27 | 52:57.60 | 0:18.36 | 238335 | 239720
28 | 53:16.21 | 3:35.52 | 239721 | 255897

Характеристики диапазона извлечения и сообщения об ошибках

Выбранный диапазон

Имя файла C:\Sofronitsky-BrillliantClassics\CD9\Vladimir Sofronitzky - Sofronitzky Edition CD 09.wav

Пиковый уровень 89.0 %
Качество диапазона 99.9 %
CRC копии 56B00917
Копирование... OK

Ошибок не произошло

Конец отчёта

Download Vladimir Sofronitsky - Edition: Historical Russian Archives [9CD Box Set] (2008):


Thanks to the original Publicist "GMSh"

If you'll find that my links are dead please let me know through the Private Messages.

Please DO NOT MIRROR
ADVERTISING » High Speed Download « ADVERTISING




Posted By: raj_mahid Date: 17 Sep 2021 23:11:48
Glad to see you are finally posting 200MB files instead of smaller ones! Keep up the good work ;)
Posted By: FIboreka Date: 18 Sep 2021 04:25:35
Thank you very much!
Recent searches: