Loading...
Done
Home > Music > +Classical > 500 - 1450 Medieval
La Nef - Perceval. La quête du Graal - vol. 1
Posted By : yerbas07 | Date : 18 Feb 2022 20:36:34 | Comments : 2

La Nef - Perceval. La quête du Graal - vol. 1
EAC FLAC cue+scans (300 MB) | LOG | Accuraterip
Dorian DOR-90271 (1998) | medieval / Celtic


The present program is constructed entirely by La Nef, following the tweflth century story of Perceval and the Grail by Chrétien de Troyes. The original texts were not set to music (or do not survive with music), and so the music has been drawn from a variety of sources, including some traditional Celtic tunes. Unfortunately, the notes for the recording do not detail the individual sources with any precision.
The performance style itself is dramatic, as is usual for La Nef, but besides some of the more standard medieval-style interpretations, there is a Baroque operatic coloring to many sections. It is a very original production. -- medieval.org

tracking & performers
DANS LA FORÊT PERDUE
01 - Prologue. Les fleurs de la forêt (instr.) [2:05]
02 - Air des Chevaliers [2:38]
03 - Et quand il les vit en apert [2:00]
04 - Perceval revient du bois (instr.) [3:13]
05 - Biaux fils [3:01]
06 - Ah! Lasse, comme suis mail baillie! [3:46]
07 - À manger! [1:23]
08 - Le Départ [3:06]

AU CHÂTEAU D'ARTHUR
09 - Où iras-tu, vallet, dis va? [1:11]
10 - Biaux frère, bienvenu soyez [2:49]
11 - Vallet, si tu vis sans âge [2:35]
12 - Mettez les bas [1:05]

AU CHÂTEAU DE BLANCHEFLEUR À BEAUREPAIRE
13 - Damoiselle, je fus [1:54]
14 - Slow air (instr.) [1:48]
15 - Ha, gentil chevalier, merci! [1:02]
16 - Ainsi malheureuse suis [2:38]
17 - Aime chère [4:41]

LA BATAILLE DE BEAUREPAIRE
18 - À l'ajourner s'en retourna [3:11]
19 - Le jor y fut ses fers sentis [1:59]
20 - The Arran boat (instr.) [1:33]
21 - A Jig (instr.) [2:08]
22 - Le départ de Beaurepaire (instr.) [1:05]

23 - Ici à la voie se met [4:34]

LA NEF
Sylvain Bergeron

Daniel Taylor, PERCEVAL, countertenor
Claire Gignac, THE LADY WIDOW, contralto, recorders, percussions
Viviane LeBlanc, BLANCHEFLOR, soprano
Catherine Herrmann, A YOUNG MAID, soprano, dulcimers
Rafik Samman, ARTHUR, baritone, santur, percussions
Nicolas Lemieux, THE RED KNIGHT, tenor
Betsy MacMillan, bass & treble viols
Robin Grenon, harp
Éric Mercier, shawm, penny whistle
Sylvain Bergeron, early guitar

rapidshare links

LOG
Exact Audio Copy V0.99 prebeta 5 from 4. May 2009

EAC extraction logfile from 12. February 2010, 18:23

La Nef / Perceval-La quête du Graal-Volume 1

Used drive : HL-DT-STDVD-ROM GDR8162B Adapter: 0 ID: 1

Read mode : Secure
Utilize accurate stream : Yes
Defeat audio cache : Yes
Make use of C2 pointers : No

Read offset correction : 102
Overread into Lead-In and Lead-Out : No
Fill up missing offset samples with silence : Yes
Delete leading and trailing silent blocks : No
Null samples used in CRC calculations : Yes
Used interface : Native Win32 interface for Win NT & 2000




TOC of the extracted CD

Track | Start | Length | Start sector | End sector
---------------------------------------------------------
1 | 0:00.00 | 2:05.07 | 0 | 9381
2 | 2:05.07 | 2:37.50 | 9382 | 21206
3 | 4:42.57 | 1:59.58 | 21207 | 30189
4 | 6:42.40 | 3:13.12 | 30190 | 44676
5 | 9:55.52 | 3:01.05 | 44677 | 58256
6 | 12:56.57 | 3:46.28 | 58257 | 75234
7 | 16:43.10 | 1:22.67 | 75235 | 81451
8 | 18:06.02 | 3:05.38 | 81452 | 95364
9 | 21:11.40 | 1:10.52 | 95365 | 100666
10 | 22:22.17 | 2:49.13 | 100667 | 113354
11 | 25:11.30 | 2:35.05 | 113355 | 124984
12 | 27:46.35 | 1:04.65 | 124985 | 129849
13 | 28:51.25 | 1:53.55 | 129850 | 138379
14 | 30:45.05 | 1:47.67 | 138380 | 146471
15 | 32:32.72 | 1:02.05 | 146472 | 151126
16 | 33:35.02 | 2:38.18 | 151127 | 162994
17 | 36:13.20 | 4:41.30 | 162995 | 184099
18 | 40:54.50 | 3:10.72 | 184100 | 198421
19 | 44:05.47 | 1:58.60 | 198422 | 207331
20 | 46:04.32 | 1:32.48 | 207332 | 214279
21 | 47:37.05 | 2:07.72 | 214280 | 223876
22 | 49:45.02 | 1:04.50 | 223877 | 228726
23 | 50:49.52 | 4:34.10 | 228727 | 249286


Range status and errors

Selected range

Filename D:\Perceval-La quête du Graal-Volume 1-La Nef\La Nef - Perceval-La quête du Graal-Volume 1.wav

Peak level 99.8 %
Range quality 100.0 %
Copy CRC CE5FAA37
Copy OK

No errors occurred


AccurateRip summary

Track 1 accurately ripped (confidence 1) [AC04630D]
Track 2 accurately ripped (confidence 1) [C3FEB4B3]
Track 3 accurately ripped (confidence 1) [9F8E9F74]
Track 4 accurately ripped (confidence 1) [6653AE25]
Track 5 accurately ripped (confidence 1) [2008134C]
Track 6 accurately ripped (confidence 1) [54DFF891]
Track 7 accurately ripped (confidence 1) [452760ED]
Track 8 accurately ripped (confidence 1) [28AECA39]
Track 9 accurately ripped (confidence 1) [8E9BDCA9]
Track 10 accurately ripped (confidence 1) [9AFE20D7]
Track 11 accurately ripped (confidence 1) [4DD6FA97]
Track 12 accurately ripped (confidence 1) [F4033A8B]
Track 13 accurately ripped (confidence 1) [129A2C43]
Track 14 accurately ripped (confidence 1) [9BB4FF0C]
Track 15 accurately ripped (confidence 1) [3B1904FA]
Track 16 accurately ripped (confidence 1) [16019B38]
Track 17 accurately ripped (confidence 1) [8625669A]
Track 18 accurately ripped (confidence 1) [396D4E04]
Track 19 accurately ripped (confidence 1) [4D9533B1]
Track 20 accurately ripped (confidence 1) [3F6A285C]
Track 21 accurately ripped (confidence 1) [D055A767]
Track 22 accurately ripped (confidence 1) [2F2AD87D]
Track 23 accurately ripped (confidence 1) [3CE4B55F]

All tracks accurately ripped

End of status report
ADVERTISING » Download fast « ADVERTISING
Posted By: TheHighAldwyn Date: 18 Feb 2022 23:41:34
Many Thanks for this share!
Posted By: j657 Date: 19 Feb 2022 04:31:51
Yes, many thanks... beautiful record, yerbas07
Recent searches:
DONATE AVAXHOME:

Donate please!