Loading...
Done
Home > Music > +Classical > 1950 - 2000 Contemporary
Posted By : mook45 | Date : 17 Sep 2021 22:50:48 | Comments : 1 |

Orkest de Volharding - 1972-1992: Trajekten (1999)
EAC | FLAC IMG,CUE+LOG = 344MB | 400 dpi Scans
Contemporary Classical | Label: NM Classics - 92021 | FSe/MU/HF


Orkest de Volharding (perseverance orchestra) is a Dutch music ensemble, founded in 1972 by Louis Andriessen and saxophonist Willem Breuker, named after the eponymous Andriessen work. The line up for the original concert, on May 12, 1972, was three each of trumpets saxes and trombones, plus Andriessen on the piano. After that the standard line was established with the addition of flute, horn and bass (although for a period 2 clarinets were added as well).

Originally conceived as a street band with a political agenda, the group has gradually evolved into a more conventional contemporary music ensemble, adding a conductor in the 1990's. Andriessen wrote a number of works for the group before leaving in the late '70's. None of musicians who played in the very first concert are still with the group, but flautist Dil Engelhard and saxophonist Bob Driessen, who joined immediately afterwards, are still members. Wiki


Samples at Allmusic

Track listing
#1 On Jimmy Yancey for jazz ensemble
Composed by Louis Andriessen
with Orkest de Volharding
Conducted by Cess Van Zeeland

#2 Dressoir
Composed by Misha Mengelberg
with Orkest de Volharding
Conducted by Cess Van Zeeland

#3 Balada do Amor Militante
Composed by Amilcar Vasques Dias
with Orkest de Volharding
Conducted by Cess Van Zeeland

#4 Trajekten
Composed by Willem Van Manen
with Orkest de Volharding
Conducted by Cess Van Zeeland

#5 Järn
Composed by Klas Torstennsson
with Orkest de Volharding
Conducted by Klas Torstennsson

#6 Lacune
Composed by Cess Van Zeeland
with Orkest de Volharding
Conducted by Cess Van Zeeland

#7 Woeha
Composed by Guus Janssen
with Orkest de Volharding
Conducted by Cess Van Zeeland

#8 Dat gebeurt in Vietnam
Composed by Louis Andriessen
with Orkest de Volharding
Conducted by Cess Van Zeeland

LOG
Exact Audio Copy V0.99 prebeta 5 from 4. May 2009

EAC extraction logfile from 11. September 2010, 15:24

Orkest de Volharding / Trajekten

Used drive : HP DVD Writer 1040r Adapter: 1 ID: 0

Read mode : Secure
Utilize accurate stream : Yes
Defeat audio cache : Yes
Make use of C2 pointers : No

Read offset correction : 6
Overread into Lead-In and Lead-Out : No
Fill up missing offset samples with silence : Yes
Delete leading and trailing silent blocks : No
Null samples used in CRC calculations : Yes
Used interface : Native Win32 interface for Win NT & 2000

Used output format : User Defined Encoder
Selected bitrate : 1024 kBit/s
Quality : High
Add ID3 tag : No
Command line compressor : C:\Program Files\Exact Audio Copy\FLAC\FLAC.EXE
Additional command line options : -5 -V -T "ARTIST=%a" -T "TITLE=%t" -T "ALBUM=%g" -T "DATE=%y" -T "TRACKNUMBER=%n" -T "GENRE=%m" -T "COMMENT=EAC Flac 1.1.2 -5" %s


TOC of the extracted CD

Track | Start | Length | Start sector | End sector
---------------------------------------------------------
1 | 0:00.32 | 14:09.40 | 32 | 63746
2 | 14:09.72 | 9:56.73 | 63747 | 108519
3 | 24:06.70 | 5:20.37 | 108520 | 132556
4 | 29:27.32 | 11:31.25 | 132557 | 184406
5 | 40:58.57 | 9:18.18 | 184407 | 226274
6 | 50:17.00 | 9:59.07 | 226275 | 271206
7 | 60:16.07 | 10:13.53 | 271207 | 317234
8 | 70:29.60 | 2:28.02 | 317235 | 328336


Range status and errors

Selected range

Filename C:\Users\Mike3\Desktop\Orkest de Volharding - Trajekten\Orkest de Volharding - Trajekten.wav

Peak level 95.5 %
Range quality 100.0 %
Copy CRC 7D95F302
Copy OK

No errors occurred


AccurateRip summary

Track 1 not present in database
Track 2 not present in database
Track 3 not present in database
Track 4 not present in database
Track 5 not present in database
Track 6 not present in database
Track 7 not present in database
Track 8 not present in database

None of the tracks are present in the AccurateRip database

End of status report


Download:

HF

MU

FSe

ADVERTISING » High Speed Download « ADVERTISING




Posted By: d'Avignon Date: 17 Sep 2021 23:26:48
A historic ensemble, Andriessen and Breuker together, fantastic. But yes, I have it already.
Recent searches: