Loading...
Done
Home > Music > +Classical
Stefano Scodanibbio - Geografia amorosa (1999)
Posted By : basa005 | Date : 26 Feb 2022 10:07:07 | Comments : 3

Stefano Scodanibbio - Geografia amorosa (1999)
EAC RIP | APE + CUE + LOG | COVER+BOOK | RAR FILES (3% recovery) | 196 Mb
Classical | col legno WWE 1CD 20063



Tracklist:
Sei Studi (1981/1983)
01 Joke 02:03
02 Dust 06:47
03 Upward 02:03
04 Faraway 03:40
05 On turning 05:02
06 Farewell 05:22
Due pezzi brillanti (1985)
07 I 05:03
08 II 03:23
09 Alisei (1986) 09:34
10 Geografia amorosa (1994) 08:59
11 Marche bancale (1998) from 'La fine del pensiero' 11:23
12 e/statico (1980) 06:14
Total Time: 01:09:33

Stefano Scodanibbio, contrabass
Recorded April & August 1999, La Mama, Modena
World Premiere Recording

There are of course a handful of composers such as Bottesini and Dittersdorf who wrote double bass concertos taking into account the instrument’s fairly sluggish constitution. But it was only in the 20th century that the full capacities of the instrument were really put to musical use. In his pieces, Stefano Scodanibbio began a fresh exploration of the double bass. His Sei Studi, for instance, are not primarily musical exercises but concert etudes which, apart from their systematic qualities, are to be considered mostly as poetic and subtle quests for new sounds. In this piece, Scodanibbio explores playing techniques ranging from flageolets in combination with plucked tones to excessive overtone playing. While he still continues on the path of the Studi in his Due pezzi brillanti, he achieves the perfect balance between poetry and construction in Alisei and Geografia amorosa by virtue of distant overtones, rapid tremolos and plucked basses. Marche bacanale, an “unsteady march toward the end of remembrance”, and e/statico, a “double bass frenzy firmly controlled” conclude this striking portrait of one of the wittiest masters of the double bass.

EAC LOG

Exact Audio Copy V0.99 prebeta 4 from 23. January 2008

Estrazione File Di Log EAC Del 25. Febbraio 2010, 15:12

Stefano Scodanibbio / Geografia Amorosa

Unità Predefinita: ATAPI DVD A DH16A1L Adapter: 1 ID: 0

Modalità Di Lettura: : Sicura
Utilizza Lettura Accurata : Sì
Disattiva Cache Audio : No
Rileva Errori Lettura C2 : Sì

Correzione Offset Di Lettura: : 6
Sovrascrivi Anche Nel Lead-In E Lead-Out : No
Riempi Sample Offset Mancanti Con Silenzio : Sì
Rimuovi Blocchi Di Silenzio Ad Inizio E Fine Traccia : No
Usa I Sample Nulli Nel Calcolo CRC : Sì
Interfaccia Usata : Interfaccia Nativa Win32 Per Windows NT & 2000

Formato Di Destinazione Scelto: : Routine Interne WAV
Formato Sample : 44.100 Hz; 16 Bit; Stereo


TOC Del CD Estratto

Traccia | Inizio | Lunghezza | Inizio Settore | Fine Settore
----------------------------------------------------------------
1 | 0:00.00 | 2:06.51 | 0 | 9500
2 | 2:06.51 | 6:50.18 | 9501 | 40268
3 | 8:56.69 | 2:07.02 | 40269 | 49795
4 | 11:03.71 | 3:43.40 | 49796 | 66560
5 | 14:47.36 | 5:05.30 | 66561 | 89465
6 | 19:52.66 | 5:25.36 | 89466 | 113876
7 | 25:18.27 | 5:06.54 | 113877 | 136880
8 | 30:25.06 | 3:28.58 | 136881 | 152538
9 | 33:53.64 | 9:40.51 | 152539 | 196089
10 | 43:34.40 | 9:04.55 | 196090 | 236944
11 | 52:39.20 | 11:29.66 | 236945 | 288685
12 | 64:09.11 | 6:14.33 | 288686 | 316768


Stato Intervallo Ed Errori

Intervallo Selezionato

Nome File C:\avaxhome\Stefano Scodanibbio - Geografia Amorosa.wav

Livello Di Picco 85.1 %
Qualità Intervallo 100.0 %
Copia CRC 826BE3B7
Copia Corretta

Non Sono Stati Riscontrati Errori


Sommario Accuraterip

Traccia 1 Non Presente Nel Database
Traccia 2 Non Presente Nel Database
Traccia 3 Non Presente Nel Database
Traccia 4 Non Presente Nel Database
Traccia 5 Non Presente Nel Database
Traccia 6 Non Presente Nel Database
Traccia 7 Non Presente Nel Database
Traccia 8 Non Presente Nel Database
Traccia 9 Non Presente Nel Database
Traccia 10 Non Presente Nel Database
Traccia 11 Non Presente Nel Database
Traccia 12 Non Presente Nel Database

Nessuna Delle Tracce è Presente Nel Database AccurateRip

Fine Del Resoconto Di Stato


download cd:
part 1
part 2
part 3

download cover+book:
part 1
ADVERTISING » Download fast « ADVERTISING
Posted By: basa005 Date: 26 Feb 2022 10:11:46
@peachfuzz: mi piace immaginarti con un gran sorriso!
buon ascolto amico!
Posted By: peachfuzz Date: 27 Feb 2022 03:21:29
Thank you, much appreciated.

BTW I also know that you spoiled many of us around here with your fantastic uploads. :)
Posted By: denegado Date: 27 Feb 2022 13:48:53
Great post! Thanks a lot!
Recent searches:
DONATE AVAXHOME:

Donate please!