Loading...
Done
Home > Music > +Classical
Yoshimatsu, Honda, Ibert, Larsson - Saxophone Concertos [Sugawa]
Posted By : aliomodo | Date : 03 Feb 2022 00:48:39 | Comments : 1

Yoshimatsu, Honda, Ibert, Larsson - Saxophone Concertos [Sugawa]
APE & MP3 + CUE + LOG | TT 77:02 | Pdf booklet included
APE = 284 mb | MP3 (lame --preset standard) = 107 mb
Nobuya Sugawa (saxophone), BBC Philharmonic - Yutaka Sado
Recorded 2007 | Released 2008

"Lovers of the saxophone must welcome a CD that offers two stalwart works in such fine interpretations" (Gramophone)



Personnel:
Nobuya Sugawa: saxophone
BBC Philharmonic - Yutaka Sado (cond.)

Recording:
23 and 24 October 2007, Studio 7, New Broadcasting House, Manchester

Chandos CHAN 10466

Track listing:
Takashi Yoshimatsu (b. 1953)
Saxophone Concerto 'Albireo Mode', Op. 93 (2004-05)
for Soprano Saxophone and Orchestra

1. I. Topaz. Andante tranquillo - Più mosso - Tempo I - Moderato
2. II. Sapphire. Andante misterioso - Moderato - Sena tempo

Toshiyuki Honda (b. 1957)
Concerto du vent (2005)

3. I. Un vent propice
4. II. La marque du vent
5. III. Un nouveau vent

Jacques Ibert (1890-1962)
Concertino da Camera (1935)
for Alto Saxophone and Eleven Instruments

6. I. Allegro con moto
7. II. Larghetto -
8. Animato molto

Lars-Erik Larsson (1908-1986)
Concerto for Saxophone and String Orchestra, Op. 14 (1934)

9. I. Allegro molto moderato
10. II. Adagio
11. III. Allegro scherzando

Info (Chandos):
Nobuya Sugawa is one of the most distinguished wind instrumentalists in Japan. He is joined here by the BBC Philharmonic under Yutaka Sado to perform works by Yoshimatsu and Honda, both of which are dedicated to him. He also plays works by Ibert and Larsson which are firmly established in the saxophone’s concert repertoire. Sugawa performs in Japan and throughout the world and over the years has received numerous prizes and awards.


Support good artists, buy their music!

Download links
Please note: for file retention reasons, RS links are not published "out in the open". Thanks for understanding...

Password: aliomodo

Check out my other posts!

EAC log
Exact Audio Copy V0.99 prebeta 5 from 4. May 2009

EAC extraction logfile from 8. January 2010, 16:26

Yoshimatsu, Honda, Ibert, Larsson / Saxophone Concertos [Sugawa]

Used drive : TSSTcorpCDDVDW TS-L632N Adapter: 0 ID: 0

Read mode : Secure
Utilize accurate stream : Yes
Defeat audio cache : Yes
Make use of C2 pointers : No

Read offset correction : 6
Overread into Lead-In and Lead-Out : No
Fill up missing offset samples with silence : Yes
Delete leading and trailing silent blocks : No
Null samples used in CRC calculations : Yes
Used interface : Native Win32 interface for Win NT & 2000

Used output format : Internal WAV Routines
Sample format : 44.100 Hz; 16 Bit; Stereo


TOC of the extracted CD

Track | Start | Length | Start sector | End sector
---------------------------------------------------------
1 | 0:00.00 | 11:41.73 | 0 | 52647
2 | 11:41.73 | 11:19.30 | 52648 | 103602
3 | 23:01.28 | 4:29.35 | 103603 | 123812
4 | 27:30.63 | 5:31.30 | 123813 | 148667
5 | 33:02.18 | 9:13.45 | 148668 | 190187
6 | 42:15.63 | 4:26.00 | 190188 | 210137
7 | 46:41.63 | 3:46.40 | 210138 | 227127
8 | 50:28.28 | 4:47.65 | 227128 | 248717
9 | 55:16.18 | 10:21.30 | 248718 | 295322
10 | 65:37.48 | 6:52.15 | 295323 | 326237
11 | 72:29.63 | 4:30.12 | 326238 | 346499


Range status and errors

Selected range

Filename H:\_APE\_Bib\Yoshimatsu, Honda, Ibert, Larsson - Saxophone Concertos [Sugawa]\Yoshimatsu, Honda, Ibert, Larsson - Saxophone Concertos [Sugawa].wav

Peak level 84.3 %
Range quality 99.9 %
Copy CRC 11F01096
Copy OK

No errors occurred


AccurateRip summary

Track 1 not present in database
Track 2 not present in database
Track 3 not present in database
Track 4 not present in database
Track 5 not present in database
Track 6 not present in database
Track 7 not present in database
Track 8 not present in database
Track 9 not present in database
Track 10 not present in database
Track 11 not present in database

None of the tracks are present in the AccurateRip database

End of status report



Enjoy!

--> No mirrors please !
ADVERTISING » Download fast « ADVERTISING
Posted By: crab9 Date: 03 Feb 2022 07:53:04
Many thanks for another very interesting upload.
Recent searches:
DONATE AVAXHOME:

Donate please!