Loading...
Done
Home > Music > +Classical
Posted By : mrjansons | Date : 28 Feb 2022 05:41:31 | Comments : 4 |

Marco - Pulsar, Garrido - Musica Diurna, Turina - Fantasía, Pentimento
(Poznan Philharmonic - Temes)

EAC 099pb4 Rip | FLAC+CUE, LOGs | 1 CD | 57:21 min
241 MB | 300 dpi PDF Complete Scans
Genre: 20th Century - Contemporary | Label: Discobilbao

Hi again fellows! This OOP cd, really rescued from oblivion, has several works by spanish contemporary composers. A must listen for those who want to explore Spanish contemporary music. Enjoy!!

CD LOG

Exact Audio Copy V0.99 prebeta 4 from 23. January 2008

EAC extraction logfile from 31. July 2009, 16:07

Unknown Artist / Unknown Title

Used drive : HL-DT-STDVD-ROM GDR8163B Adapter: 1 ID: 1

Read mode : Secure
Utilize accurate stream : Yes
Defeat audio cache : Yes
Make use of C2 pointers : No

Read offset correction : 102
Overread into Lead-In and Lead-Out : No
Fill up missing offset samples with silence : Yes
Delete leading and trailing silent blocks : No
Null samples used in CRC calculations : No
Used interface : Native Win32 interface for Win NT & 2000

Used output format : Internal WAV Routines
Sample format : 44.100 Hz; 16 Bit; Stereo


TOC of the extracted CD

Track | Start | Length | Start sector | End sector
---------------------------------------------------------
1 | 0:00.12 | 21:15.00 | 12 | 95636
2 | 21:15.12 | 13:22.00 | 95637 | 155786
3 | 34:37.12 | 11:45.00 | 155787 | 208661
4 | 46:22.12 | 10:59.00 | 208662 | 258086


Range status and errors

Selected range

Filename C:\Documents and Settings\Administrador\Escritorio\Marco - Garrido - Turina\Unknown Artist - Unknown Title.wav

Peak level 100.0 %
Range quality 99.9 %
Copy CRC 8420F33F
Copy OK

No errors occurred


AccurateRip summary

Track 1 not present in database
Track 2 not present in database
Track 3 not present in database
Track 4 not present in database

None of the tracks are present in the AccurateRip database

End of status report


Tomás Marco

(1942)

Pulsar

Tomás Garrido

(1955)

Música diurna

José Luis Turina

(1952)

Fantasía sobre una fantasía de Alonso Mudarra

Pentimento


Poznan Philharmonic Orchestra

José Luis Temes

Recorded in 1989, at Poznan University Concert Hall

Discobilbao - D2011 - DDD - (P)1990 - 1 disc
-----------------

Link 1
Link 2

Password: Acer montanum

PLEASE: NO MIRRORS!


-----------------

TRACK LIST


ADVERTISING » High Speed Download « ADVERTISING




Posted By: basa005 Date: 28 Feb 2022 19:51:20
grazie mille per queste nuove (per me) scoperte!
Posted By: upkerry11 Date: 01 Mar 2022 00:05:12
Muchas gracias!
Posted By: dangdang Date: 01 Mar 2022 08:06:31
I believe Spain is becoming the centre of current movement. (Largely interested in Guerrero and his colleagues.)
Arigato!
Posted By: denegado Date: 03 Mar 2022 00:17:11
Thank you very much!!!
Recent searches: