Loading...
Done
Home > Music > +Classical
Giacinto Scelsi - Collection Vol.1 (2007)
Posted By : basa005 | Date : 26 Feb 2022 10:17:27 | Comments : 9

Giacinto Scelsi - Collection Vol.1 (2007)
EAC RIP | APE + CUE + LOG | COVER+BOOK | RAR FILES (3% recovery) | 183 Mb
Classical | Stradivarius STR 33801




Tracklist:
1. Maknongan
2-6. String Quartet No.2
7. Riti "Ritual March", version for Achilles, for 4 percussionists
8-11. Illustrazione (4), for piano
12. Riti "Ritual March", version for Charlemagne, for cello & 2 percussionists

Performers
Roberto Fabbriciani (Flute)
Fabrizio Ottaviucci (Piano)
Francesco Dillon (Cello)
Fulvia Ricevuto (Percussion)

Conductor
Enrico Cocco

EAC LOG

Exact Audio Copy V0.99 prebeta 4 from 23. January 2008

Estrazione File Di Log EAC Del 25. Febbraio 2010, 15:38

Giacinto Scelsi / Collection Vol. 1

Unità Predefinita: ATAPI DVD A DH16A1L Adapter: 1 ID: 0

Modalità Di Lettura: : Sicura
Utilizza Lettura Accurata : Sì
Disattiva Cache Audio : No
Rileva Errori Lettura C2 : Sì

Correzione Offset Di Lettura: : 6
Sovrascrivi Anche Nel Lead-In E Lead-Out : No
Riempi Sample Offset Mancanti Con Silenzio : Sì
Rimuovi Blocchi Di Silenzio Ad Inizio E Fine Traccia : No
Usa I Sample Nulli Nel Calcolo CRC : Sì
Interfaccia Usata : Interfaccia Nativa Win32 Per Windows NT & 2000

Formato Di Destinazione Scelto: : Routine Interne WAV
Formato Sample : 44.100 Hz; 16 Bit; Stereo


TOC Del CD Estratto

Traccia | Inizio | Lunghezza | Inizio Settore | Fine Settore
----------------------------------------------------------------
1 | 0:00.00 | 4:15.08 | 0 | 19132
2 | 4:15.08 | 3:57.34 | 19133 | 36941
3 | 8:12.42 | 4:33.26 | 36942 | 57442
4 | 12:45.68 | 3:58.51 | 57443 | 75343
5 | 16:44.44 | 3:36.74 | 75344 | 91617
6 | 20:21.43 | 4:49.15 | 91618 | 113307
7 | 25:10.58 | 5:08.70 | 113308 | 136477
8 | 30:19.53 | 3:53.35 | 136478 | 153987
9 | 34:13.13 | 3:31.32 | 153988 | 169844
10 | 37:44.45 | 2:56.48 | 169845 | 183092
11 | 40:41.18 | 3:07.60 | 183093 | 197177
12 | 43:49.03 | 9:40.09 | 197178 | 240686


Stato Intervallo Ed Errori

Intervallo Selezionato

Nome File C:\avaxhome\Giacinto Scelsi - Collection Vol. 1.wav

Livello Di Picco 87.7 %
Qualità Intervallo 100.0 %
Copia CRC 78F46F43
Copia Corretta

Non Sono Stati Riscontrati Errori


Sommario Accuraterip

Traccia 1 Estratta Accuratamente (Confidence 2) [1647A32B]
Traccia 2 Estratta Accuratamente (Confidence 2) [356F916A]
Traccia 3 Estratta Accuratamente (Confidence 2) [F430D0DC]
Traccia 4 Estratta Accuratamente (Confidence 2) [221FE550]
Traccia 5 Estratta Accuratamente (Confidence 2) [08BAB0F1]
Traccia 6 Estratta Accuratamente (Confidence 2) [46F7C4F1]
Traccia 7 Estratta Accuratamente (Confidence 2) [252EF470]
Traccia 8 Estratta Accuratamente (Confidence 2) [3B62CA9E]
Traccia 9 Estratta Accuratamente (Confidence 2) [DC5C0F37]
Traccia 10 Estratta Accuratamente (Confidence 2) [88704646]
Traccia 11 Estratta Accuratamente (Confidence 2) [667BC87E]
Traccia 12 Estratta Accuratamente (Confidence 2) [91F84AAC]

Tutte Le Tracce Sono State Estratte Accuratamente

Fine Del Resoconto Di Stato


download cd:
part 1
part 2
part 3

download cover+book:
part 1
ADVERTISING » Download fast « ADVERTISING
Posted By: aldebaran1 Date: 26 Feb 2022 10:32:17
Dannazione basa005, non puoi continuare così, non riesco a starti
dietro, non è che posso stare tutto il tempo su avax per scaricare le
tue perle! ;) ti si dovrà costruire un monumento di questo passo..
grazie, adoro scelsi
saludos
Posted By: aldebaran1 Date: 26 Feb 2022 10:39:40
Dannazione basa005, non puoi continuare così, non riesco a starti
dietro, non è che posso sempre stare su avax a scaricare le perle
che vai seminando! ;) ti si dovrà costruire un monumento di questo
passo..
adoro scelsi, grazie infinite
saludos
Posted By: basa005 Date: 26 Feb 2022 12:15:16
tranquillo: sabato e domenica mi rilasso e ascolto anch'io un po' di buona musica.
riprendo lunedì con qualche altra ghiottoneria...
ciao
Posted By: aldebaran1 Date: 26 Feb 2022 12:45:47
veh ma io scherzo; a me fa solo piacere ; )
(comunque ora ho degli impegni, ma fra qualche mese piacerebbe postare anche a me qualcosa - se
c'è una guida per gli imbranati.. così imparo)
Posted By: ooliver Date: 26 Feb 2022 15:50:15
errore .... andate giù
mistake... please go down!
Posted By: d'Avignon Date: 26 Feb 2022 15:50:43
Three new compositions for me on this compilation. Thank you, basa
Posted By: ooliver Date: 26 Feb 2022 15:59:54
@aldebaran1 domanda e ti sarà dato... (demand and you will have the right answer)
@basa005 the usual reply followed by aldebaran1 comment: dannnnazzzzzzione please stop!:
my time is shorter than yours: you are too young
Posted By: Xenkkus Date: 27 Feb 2022 07:06:16
Thanks. I already had this but without the booklet scans.
Posted By: denegado Date: 27 Feb 2022 13:58:00
Great! Thanks a lot!
Recent searches:
DONATE AVAXHOME:

Donate please!