Loading...
Done
Home > Music > +Classical
C.P.E. Bach - Symphonies, Cello Concertos [2cd]
Posted By : aliomodo | Date : 09 Jan 2022 15:10:41 | Comments : 4

C.P.E. Bach - Symphonies, Cello Concertos [2cd]
APE & MP3 + CUE + LOG | TT 124:28 | Artwork @ 300 dpi = 17 mb
APE = 584 mb | MP3 (lame --preset standard) = 165 mb
Recorded 1988 | Released 2000





Personnel:
Orchestra of The Age of Enlightenment - Gustav Leonhardt (dir.)
Anner Bylsma: cello

Recording:
Virgin Veritas 7243 5 61794 2 4

Tracks:
CD 1
1. Symphony in D Major, Wq. 183/1: No. 1, Allegro di molto
2. Symphony in D Major, Wq. 183/1: No. 2, Largo
3. Symphony in D Major, Wq. 183/1: No. 3, Presto
4. Symphony in E flat Major, Wq. 183/2: No. 1, Allegro di molto
5. Symphony in E flat Major, Wq. 183/2: No. 2, Larghetto
6. Symphony in E flat Major, Wq. 183/2: No. 3, Presto
7. Symphony in F Major, Wq. 183/3: No. 1, Allegro di molto
8. Symphony in F Major, Wq. 183/3: No. 2, Larghetto
9. Symphony in F Major, Wq. 183/3: No. 3, Presto
10. Symphony in G Major, Wq. 183/4: No. 1, Allegro assai
11. Symphony in G Major, Wq. 183/4: No. 2, Poco andante
12. Symphony in G Major, Wq. 183/4: No. 3, Presto
13. Symphony for strings in B minor, Wq. 182/5: No. 1, Allegretto
14. Symphony for strings in B minor, Wq. 182/5: No. 2, Larghetto
15. Symphony for strings in B minor, Wq. 182/5: No. 3, Presto

CD 2
1. Cello Concerto ('No. 3') in A major, Wq. 172: No. 1, Allegro
2. Cello Concerto ('No. 3') in A major, Wq. 172: No. 2, Largo mesto
3. Cello Concerto ('No. 3') in A major, Wq. 172: No. 3, Allegro
4. Cello Concerto ('No. 1') in A minor, Wq. 170: No. 1, Allegro assai
5. Cello Concerto ('No. 1') in A minor, Wq. 170: No. 2, Andante
6. Cello Concerto ('No. 1') in A minor, Wq. 170: No. 3, Allegro assai
7. Cello Concerto ('No. 2') in B flat major, Wq. 171: No. 1, Allegretto
8. Cello Concerto ('No. 2') in B flat major, Wq. 171: No. 2, Adagio
9. Cello Concerto ('No. 2') in B flat major, Wq. 171: No. 3, Allegro assai

Amazon.com customer review:
"Excellent Recording of a Talented Composer's Works"
C.P.E. Bach was one of the most famous and talented composers of the 18th century. He tends to be obscured in the shadows of his famous predecessor, J.S. Bach, his father, and of his famous successors, Haydn and Mozart. However, C.P.E. Bach was a composer of significant talent in his own right, influenced by his father, but with his own individual style, and important enough as a composer in his time to influence others, notably Haydn and Mozart, who both admired his music.

This CD is an excellent recording of some of C.P.E. Bach's work. The melodies and harmonies are inventive, the largo and adagio movements are quite beautiful, and the allegro movements are bright, lively, engaging, and often have a strong rhythmic energy that makes them an absolute pleasure to listen to. I particularly enjoyed the Cello Concertos, listening to them several times when I first bought this CD. Anner Bylsma is an outstanding cello soloist.

The orchestra, under Gustav Leonhardt, gives a first-rate performance. The sound quality is crystal clear, with an excellent balance between the cello soloist and the orchestra in the three cello concertos. The CD insert has an interesting and well-written essay about the life of C.P.E. Bach and these works. Also, the price of this excellent 2-CD set is very reasonable. Highly recommended.


Support good artists, buy their music!

Download links

Password: aliomodo

Check out my other posts!

EAC log
Exact Audio Copy V0.99 prebeta 5 from 4. May 2009

EAC extraction logfile from 7. January 2010, 21:02

Bach (C.P.E.) / Symphonies, Cello Concertos [Leonhardt] 01

Used drive : TSSTcorpCDDVDW TS-L632N Adapter: 0 ID: 0

Read mode : Secure
Utilize accurate stream : Yes
Defeat audio cache : Yes
Make use of C2 pointers : No

Read offset correction : 6
Overread into Lead-In and Lead-Out : No
Fill up missing offset samples with silence : Yes
Delete leading and trailing silent blocks : No
Null samples used in CRC calculations : Yes
Used interface : Native Win32 interface for Win NT & 2000

Used output format : Internal WAV Routines
Sample format : 44.100 Hz; 16 Bit; Stereo


TOC of the extracted CD

Track | Start | Length | Start sector | End sector
---------------------------------------------------------
1 | 0:00.00 | 6:14.57 | 0 | 28106
2 | 6:14.57 | 1:46.43 | 28107 | 36099
3 | 8:01.25 | 2:47.57 | 36100 | 48681
4 | 10:49.07 | 4:14.58 | 48682 | 67789
5 | 15:03.65 | 1:27.60 | 67790 | 74374
6 | 16:31.50 | 3:56.55 | 74375 | 92129
7 | 20:28.30 | 5:17.42 | 92130 | 115946
8 | 25:45.72 | 2:14.20 | 115947 | 126016
9 | 28:00.17 | 3:10.30 | 126017 | 140296
10 | 31:10.47 | 3:12.13 | 140297 | 154709
11 | 34:22.60 | 5:05.12 | 154710 | 177596
12 | 39:27.72 | 3:39.05 | 177597 | 194026
13 | 43:07.02 | 3:55.50 | 194027 | 211701
14 | 47:02.52 | 2:46.08 | 211702 | 224159
15 | 49:48.60 | 4:26.67 | 224160 | 244176


Range status and errors

Selected range

Filename H:\_APE\_Own\Bach (C.P.E.) - Symphonies, Cello Concertos [Leonhardt]\Bach (C.P.E.) - Symphonies, Cello Concertos [Leonhardt] 01.wav

Peak level 100.0 %
Range quality 100.0 %
Copy CRC 2782A6FC
Copy OK

No errors occurred


AccurateRip summary

Track 1 accurately ripped (confidence 9) [9C66AF27]
Track 2 accurately ripped (confidence 9) [F4BFBEA2]
Track 3 accurately ripped (confidence 9) [6F7C3F0A]
Track 4 accurately ripped (confidence 9) [9CDE8069]
Track 5 accurately ripped (confidence 9) [686CF213]
Track 6 accurately ripped (confidence 9) [8B5C2CDE]
Track 7 accurately ripped (confidence 9) [16249A7B]
Track 8 accurately ripped (confidence 9) [2CCB475D]
Track 9 accurately ripped (confidence 9) [5F083AB7]
Track 10 accurately ripped (confidence 9) [45AF396B]
Track 11 accurately ripped (confidence 9) [FBB515C7]
Track 12 accurately ripped (confidence 9) [196C5433]
Track 13 accurately ripped (confidence 9) [48DE0988]
Track 14 accurately ripped (confidence 9) [7BB1C983]
Track 15 accurately ripped (confidence 9) [6ED2F914]

All tracks accurately ripped

End of status report

---

Exact Audio Copy V0.99 prebeta 5 from 4. May 2009

EAC extraction logfile from 7. January 2010, 21:50

Bach (C.P.E.) / Symphonies, Cello Concertos [Leonhardt] 02

Used drive : TSSTcorpCDDVDW TS-L632N Adapter: 0 ID: 0

Read mode : Secure
Utilize accurate stream : Yes
Defeat audio cache : Yes
Make use of C2 pointers : No

Read offset correction : 6
Overread into Lead-In and Lead-Out : No
Fill up missing offset samples with silence : Yes
Delete leading and trailing silent blocks : No
Null samples used in CRC calculations : Yes
Used interface : Native Win32 interface for Win NT & 2000

Used output format : Internal WAV Routines
Sample format : 44.100 Hz; 16 Bit; Stereo


TOC of the extracted CD

Track | Start | Length | Start sector | End sector
---------------------------------------------------------
1 | 0:00.00 | 6:34.42 | 0 | 29591
2 | 6:34.42 | 7:45.00 | 29592 | 64466
3 | 14:19.42 | 5:06.68 | 64467 | 87484
4 | 19:26.35 | 9:27.70 | 87485 | 130079
5 | 28:54.30 | 9:50.02 | 130080 | 174331
6 | 38:44.32 | 6:36.00 | 174332 | 204031
7 | 45:20.32 | 8:14.15 | 204032 | 241096
8 | 53:34.47 | 10:05.40 | 241097 | 286511
9 | 63:40.12 | 6:29.58 | 286512 | 315744


Range status and errors

Selected range

Filename H:\_APE\_Own\Bach (C.P.E.) - Symphonies, Cello Concertos [Leonhardt]\Bach (C.P.E.) - Symphonies, Cello Concertos [Leonhardt] 02.wav

Peak level 75.5 %
Range quality 99.9 %
Copy CRC C56D8429
Copy OK

No errors occurred


AccurateRip summary

Track 1 accurately ripped (confidence 9) [001DB205]
Track 2 accurately ripped (confidence 9) [6FCE0ED9]
Track 3 accurately ripped (confidence 9) [4CEAE7F8]
Track 4 accurately ripped (confidence 8) [2C4E4C04]
Track 5 accurately ripped (confidence 8) [95A352B2]
Track 6 accurately ripped (confidence 8) [2B0AEDD9]
Track 7 accurately ripped (confidence 8) [4167D913]
Track 8 accurately ripped (confidence 7) [4E75DE60]
Track 9 accurately ripped (confidence 8) [32BE84A1]

All tracks accurately ripped

End of status report



Enjoy!

--> No mirrors please !
ADVERTISING » Download fast « ADVERTISING
Posted By: pplume Date: 09 Jan 2022 15:28:12
Many Great THANKS for that !
Posted By: trench Date: 09 Jan 2022 19:24:46

Thank you Aliomodo, always look forward to your Baroque uploads.
Posted By: mozartkilledsalieri Date: 10 Jan 2022 06:17:27
Why make people download a file to the links instead of just posting the links?
Posted By: aliomodo Date: 10 Jan 2022 10:05:28
@mozartkilledsalieri

It's my belief that textfile links are safer than direct links. (Less risk of them getting deleted from the RS servers...)

No other reason.

Cheers,
AM
DONATE AVAXHOME:

Donate please!