Loading...
Done
Home > Music > +Classical
Posted By : paprica | Date : 18 Oct 2021 14:57:28 | Comments : 2 |

Béla Bartók & Luciano Berio with Jonathan Crow & Yehonatan Berick-44 Duos for Two Violins/Duetti per due violini (2010)
EAC | FLAC (Tracks, Cue, Log, Front Cover) | 376 mb (+5%rec)
MP3 | 320kbps | 218 mb (+5%rec)
Genre: Classical | Label: Universal Music

Tracklist

CD1: 44 Duos for Two Violins / Bartok
1. teasing song1. andante
2. maypole dance. andante
3. menuetto. moderato
4. midsummer night song. risoluto
5. slovakian song 1. molto moderato
6. hungarian song 1. moderatamente mosso
7. walachian song 1. allegro moderato
8. slovakian song 2. andante
9. play song. allegro non troppo
10. ruthenian song. andante
11. cradle song. lento
12. haymaking song. lento religioso
13. wedding song. adagio
14. pillow dance. allegretto
15. soldier's song. maestoso
16. burlesque. allegretto - un poco piu tranquillo - tempo 1
17. hungarian march 1. tempo di marcia, allegramente - piu mosso
18. hungarian march 2. tempo di marcia
19. a fairy tale. molto tranquillo
20. a rhythm song. allegretto - meno mosso
21. new year's song 1. adagio - molto tranquillo
22. mosquito dance. allegro molto
23. bride's farewell. lento rubato
24. comic song. allegro scherzando - meno mosso
25. hungarian song 2. allegretto, leggiero - meno mosso
26. teasing song 2. scherzando
27. limping dance. allegro non troppo - piu mosso
28. sorrow. lento, poco rubato
29. new year's song 2. tempo giusto
30. new year's song 3. allegro -meno mosso - tempo 1
31. new year's song 4. allegro non troppo
32. dancing song from maramaros. allegro giocoso
33. harvest song. lento - piu mosso, parlando - tempo 1 - tempo 2
34. counting song. allegramente
35. ruthenian kolomejka. allegro - meno mosso - tempo 1
36. 1. the bagpipe . allegro molto 2. variation of no. 36.allegro molto
37. prelude and canon. lento - un poco piu lento - molto tranquillo - risoluto, non troppo vivace - allegro molto
38. rumanian whirling dance. allegro
39. serbian dance. allegro molto
40. walachian dance. comodo - piu lento - tempo 1 - piu mosso
41. scherzo. vivace
42. arabian song. allegro
43. pizzicato. allegretto
44. transylvanian dance (ardeliana). allegro moderato - piu moderato

CD2: Duetti per due violini / Berio
1. béla (bartok)
2. shlomit (almog)
3. yossi (pecker)
4. rodion (schedrin)
5. maja (pliseckaja)
6. bruno (maderna)
7. camilla (adami)
8. peppomp (di giugno)
9. marcello (panni)
10. giorgio federico (ghedini)
11. valerio (adami)
12. daniela (rabinovitch)
13. jeanne (panni)
14. pierre (boulez)
15. tatjana (globokar)
16. rivi (pecker)
17. leonardo (pinzauti)
18. piero (farulli)
19. annie ( neuberger)
20. fiamma (nicolodi)
21. vinko (globokar)
22. franco (gulli)
23. aldo ( bennici)
24. carlo (chiarappa)
25. henri (pousseur)
26. alfredo (fiorenzani)
27. igor (stravinsky)
28. alfred (schlee)
29. massimo (mila)
30. mauricio (kagel)
31. maurice (fleuret)
32. lorin (maazel)
33. lele (d'amico)
34. edoardo (sanguineti)


Born in Prince George in 1977, Jonathan Crow began the Suzuki violin method at age six and continued studies at the Prince George Music School. When he was fifteen, Jonathan studied at the Victoria Conservatory of Music with Sydney Humphreys and attended the Banff Centre Master Class Program. He earned his Bachelor of Music in Honours Performance from McGill University, studying with Yehonatan Berick.

Upon graduation from McGill University, Mr. Crow joined the Montreal Symphony at the age of 19 as Associate Principal Second Violin, and won the Associate Concertmaster chair 5 months later. He was appointed Concertmaster in 2002, a position he held until 2006, becoming the youngest Concertmaster to lead a major North American orchestra. Jonathan is currently Assistant Professor of Violin at McGill University.

In May 1997 Jonathan performed Tchaikovsky’s Violin Concerto in a special benefit for the Victoria Symphony under the baton of Sir Yehudi Menuhin. Lord Menuhin was so impressed that he invited him to perform again with the Vancouver Symphony in April 1998. Jonathan continues to perform in North America, having been featured as soloist with most major Canadian orchestras including the Montreal, Kingston, London, National Arts Centre, Victoria and Vancouver Symphony Orchestras, under the baton of such conductors as Charles Dutoit, Sir Yehudi Menuhin, Mario Bernardi and Joo Carlos Martins. He is heard frequently on Chane Culturelle of Radio-Canada, CBC Radio Two, and National Public Radio, along with Radio France, Radio Allemand, and the RAI in Europe.




A prizewinner at the 1993 Naumburg competition and a recipient of the 1996-97 Prix Opus, Yehonatan Berick is in high demand internationally as soloist, recitalist, chamber musician (on violin as well as on viola) and pedagogue. His busy concert schedule has already taken him throughout North America, Europe and Israel. He has performed, among others, with the Quebec, Winnipeg, Windsor, Ann Arbor, Grand Junction, Jerusalem and Haifa Symphonies, the Israeli, Cincinnati, Montreal and Manitoba Chamber Orchestras, Thirteen Strings and Ensemble Appassionata. Berick's many recital programs include offering of complete cycles, including Bach’s complete Sonatas and Partitas, Paganini’s 24 caprices (each cycle performed in a single day or concert), as well as complete Sonata cycles by Brahms, Beethoven, Schumann, and Grieg. He has collaborated with such many world renowned artists, including pianists Menahem Pressler, James Tocco, Gilbert Kalish, and Awadagin Pratt; violists Michael Tree, Paul Neubauer and Kim Kashkashian; cellists David Soyer, Peter Wiley, Stephen Isserlis, David Finckel, Michel Strauss, and Yehuda Hanani, clarinetists Wolfgang Meyer and James Campbell, flutist Julius Baker, and many others from a long list of internationally renowned artists. Berick's many festival and chamber series’ credits include Marlboro, Ravinia, Seattle, Vancouver, Ottawa, Jerusalem, El Paso, Maui, Domaine Forget (Canada), Great Lakes (Michigan), Close Encounters with Music (Great Barrington, MA), Giverny (France), Leicester (U.K.), Moritzburg (Germany), Lapland (Sweden), Riihimaki (Finland), Strings in the Mountains (Colorado), Alpenglow (Colorado), Four seasons (N. Carolina), Agassiz (Winnipeg), Kfar Blum (Israel), Killington (Vermont), and Bowdoin (Maine). Berick is currently a member of the Los Angeles Piano Quartet, and of Walden Chamber Players.

Read more: Myspace


EAC LOG CD1
Exact Audio Copy V0.99 prebeta 5 from 4. May 2009

EAC extraction logfile from 22. August 2010, 14:10

Jonathan Crow - Yehonatan Berick / Bйla Bartуk 44 Duos for two violins

Used drive : HL-DT-STDVD-RAM GH22NS30 Adapter: 0 ID: 0

Read mode : Secure
Utilize accurate stream : Yes
Defeat audio cache : Yes
Make use of C2 pointers : No

Read offset correction : 102
Overread into Lead-In and Lead-Out : Yes
Fill up missing offset samples with silence : Yes
Delete leading and trailing silent blocks : No
Null samples used in CRC calculations : Yes
Used interface : Installed external ASPI interface
Gap handling : Appended to previous track

Used output format : User Defined Encoder
Selected bitrate : 320 kBit/s
Quality : High
Add ID3 tag : No
Command line compressor : C:\Program Files\Exact Audio Copy\Flac\flac.exe
Additional command line options : -V -8 -T "artist=%a" -T "title=%t" -T "album=%g" -T "date=%y" -T "tracknumber=%n" -T "genre=%m" %s


TOC of the extracted CD

Track | Start | Length | Start sector | End sector
---------------------------------------------------------
1 | 0:00.00 | 0:58.18 | 0 | 4367
2 | 0:58.18 | 0:54.54 | 4368 | 8471
3 | 1:52.72 | 0:40.18 | 8472 | 11489
4 | 2:33.15 | 0:40.29 | 11490 | 14518
5 | 3:13.44 | 1:08.20 | 14519 | 19638
6 | 4:21.64 | 0:50.15 | 19639 | 23403
7 | 5:12.04 | 0:48.54 | 23404 | 27057
8 | 6:00.58 | 0:53.20 | 27058 | 31052
9 | 6:54.03 | 0:40.55 | 31053 | 34107
10 | 7:34.58 | 1:19.31 | 34108 | 40063
11 | 8:54.14 | 1:29.30 | 40064 | 46768
12 | 10:23.44 | 0:48.54 | 46769 | 50422
13 | 11:12.23 | 0:55.16 | 50423 | 54563
14 | 12:07.39 | 0:41.02 | 54564 | 57640
15 | 12:48.41 | 1:14.63 | 57641 | 63253
16 | 14:03.29 | 0:58.01 | 63254 | 67604
17 | 15:01.30 | 0:44.62 | 67605 | 70966
18 | 15:46.17 | 0:55.11 | 70967 | 75102
19 | 16:41.28 | 1:09.04 | 75103 | 80281
20 | 17:50.32 | 1:11.09 | 80282 | 85615
21 | 19:01.41 | 2:08.68 | 85616 | 95283
22 | 21:10.34 | 0:28.13 | 95284 | 97396
23 | 21:38.47 | 1:12.12 | 97397 | 102808
24 | 22:50.59 | 0:39.02 | 102809 | 105735
25 | 23:29.61 | 1:04.63 | 105736 | 110598
26 | 24:34.49 | 0:25.02 | 110599 | 112475
27 | 24:59.51 | 0:27.57 | 112476 | 114557
28 | 25:27.33 | 2:34.26 | 114558 | 126133
29 | 28:01.59 | 0:48.60 | 126134 | 129793
30 | 28:50.44 | 0:51.56 | 129794 | 133674
31 | 29:42.25 | 0:44.06 | 133675 | 136980
32 | 30:26.31 | 0:40.33 | 136981 | 140013
33 | 31:06.64 | 1:45.10 | 140014 | 147898
34 | 32:51.74 | 0:52.68 | 147899 | 151866
35 | 33:44.67 | 1:06.62 | 151867 | 156878
36 | 34:51.54 | 2:01.27 | 156879 | 165980
37 | 36:53.06 | 2:45.67 | 165981 | 178422
38 | 39:38.73 | 0:41.56 | 178423 | 181553
39 | 40:20.54 | 0:49.11 | 181554 | 185239
40 | 41:09.65 | 0:44.23 | 185240 | 188562
41 | 41:54.13 | 0:50.25 | 188563 | 192337
42 | 42:44.38 | 1:10.08 | 192338 | 197595
43 | 43:54.46 | 0:56.47 | 197596 | 201842
44 | 44:51.18 | 2:00.45 | 201843 | 210887


Track 1

Filename C:\EAC_RIPS\Jonathan Crow - Yehonatan Berick - 2009 - Bйla Bartуk 44 Duos for two violins\01 - , Teasing Song 1. Andante.wav

Pre-gap length 0:00:02.00

Peak level 31.7 %
Track quality 100.0 %
Test CRC 3739D75D
Copy CRC 3739D75D
Track not present in AccurateRip database
Copy OK

Track 2

Filename C:\EAC_RIPS\Jonathan Crow - Yehonatan Berick - 2009 - Bйla Bartуk 44 Duos for two violins\02 - , Maypole Dance. Andante.wav

Peak level 36.1 %
Track quality 100.0 %
Test CRC D85604B3
Copy CRC D85604B3
Track not present in AccurateRip database
Copy OK

Track 3

Filename C:\EAC_RIPS\Jonathan Crow - Yehonatan Berick - 2009 - Bйla Bartуk 44 Duos for two violins\03 - , Menuetto. Moderato.wav

Peak level 44.5 %
Track quality 100.0 %
Test CRC 50E512B9
Copy CRC 50E512B9
Track not present in AccurateRip database
Copy OK

Track 4

Filename C:\EAC_RIPS\Jonathan Crow - Yehonatan Berick - 2009 - Bйla Bartуk 44 Duos for two violins\04 - , Midsummer Night Song. Risoluto.wav

Peak level 34.1 %
Track quality 100.0 %
Test CRC B99D69FE
Copy CRC B99D69FE
Track not present in AccurateRip database
Copy OK

Track 5

Filename C:\EAC_RIPS\Jonathan Crow - Yehonatan Berick - 2009 - Bйla Bartуk 44 Duos for two violins\05 - , Slovakian Song 1. Molto moderato.wav

Peak level 19.7 %
Track quality 100.0 %
Test CRC 6E8FCE8B
Copy CRC 6E8FCE8B
Track not present in AccurateRip database
Copy OK

Track 6

Filename C:\EAC_RIPS\Jonathan Crow - Yehonatan Berick - 2009 - Bйla Bartуk 44 Duos for two violins\06 - , Hungarian Song 1. Moderatamente mosso.wav

Peak level 50.2 %
Track quality 100.0 %
Test CRC A12C5587
Copy CRC A12C5587
Track not present in AccurateRip database
Copy OK

Track 7

Filename C:\EAC_RIPS\Jonathan Crow - Yehonatan Berick - 2009 - Bйla Bartуk 44 Duos for two violins\07 - , Walachian Song 1. Allegro moderato.wav

Peak level 52.8 %
Track quality 100.0 %
Test CRC 7847D313
Copy CRC 7847D313
Track not present in AccurateRip database
Copy OK

Track 8

Filename C:\EAC_RIPS\Jonathan Crow - Yehonatan Berick - 2009 - Bйla Bartуk 44 Duos for two violins\08 - , Slovakian Song 2. Andante.wav

Peak level 38.6 %
Track quality 100.0 %
Test CRC E2DC1F13
Copy CRC E2DC1F13
Track not present in AccurateRip database
Copy OK

Track 9

Filename C:\EAC_RIPS\Jonathan Crow - Yehonatan Berick - 2009 - Bйla Bartуk 44 Duos for two violins\09 - , Play Song. Allegro non troppo.wav

Peak level 36.3 %
Track quality 100.0 %
Test CRC 0906A114
Copy CRC 0906A114
Track not present in AccurateRip database
Copy OK

Track 10

Filename C:\EAC_RIPS\Jonathan Crow - Yehonatan Berick - 2009 - Bйla Bartуk 44 Duos for two violins\10 - , Ruthenian song. Andante.wav

Peak level 30.4 %
Track quality 100.0 %
Test CRC 34BFED5D
Copy CRC 34BFED5D
Track not present in AccurateRip database
Copy OK

Track 11

Filename C:\EAC_RIPS\Jonathan Crow - Yehonatan Berick - 2009 - Bйla Bartуk 44 Duos for two violins\11 - , Cradle song. Lento.wav

Peak level 20.9 %
Track quality 100.0 %
Test CRC E01CC29F
Copy CRC E01CC29F
Track not present in AccurateRip database
Copy OK

Track 12

Filename C:\EAC_RIPS\Jonathan Crow - Yehonatan Berick - 2009 - Bйla Bartуk 44 Duos for two violins\12 - , Haymaking Song. Lento religioso.wav

Peak level 15.4 %
Track quality 100.0 %
Test CRC ACE4749D
Copy CRC ACE4749D
Track not present in AccurateRip database
Copy OK

Track 13

Filename C:\EAC_RIPS\Jonathan Crow - Yehonatan Berick - 2009 - Bйla Bartуk 44 Duos for two violins\13 - , Wedding Song. Adagio.wav

Peak level 39.1 %
Track quality 100.0 %
Test CRC 5B6A61DA
Copy CRC 5B6A61DA
Track not present in AccurateRip database
Copy OK

Track 14

Filename C:\EAC_RIPS\Jonathan Crow - Yehonatan Berick - 2009 - Bйla Bartуk 44 Duos for two violins\14 - , Pillow Dance. Allegretto.wav

Peak level 56.9 %
Track quality 100.0 %
Test CRC 276C7EF3
Copy CRC 276C7EF3
Track not present in AccurateRip database
Copy OK

Track 15

Filename C:\EAC_RIPS\Jonathan Crow - Yehonatan Berick - 2009 - Bйla Bartуk 44 Duos for two violins\15 - , Soldier's Song. Maestoso.wav

Peak level 41.4 %
Track quality 100.0 %
Test CRC 61520B00
Copy CRC 61520B00
Track not present in AccurateRip database
Copy OK

Track 16

Filename C:\EAC_RIPS\Jonathan Crow - Yehonatan Berick - 2009 - Bйla Bartуk 44 Duos for two violins\16 - , Burlesque. Allegretto - Un poco piщ tranquillo - Tempo 1.wav

Peak level 45.4 %
Track quality 100.0 %
Test CRC 3257A678
Copy CRC 3257A678
Track not present in AccurateRip database
Copy OK

Track 17

Filename C:\EAC_RIPS\Jonathan Crow - Yehonatan Berick - 2009 - Bйla Bartуk 44 Duos for two violins\17 - , Hungarian March 1. Tempo di marcia, allegramente - Piщ mosso.wav

Peak level 42.7 %
Track quality 99.7 %
Test CRC 66AD8AAE
Copy CRC 66AD8AAE
Track not present in AccurateRip database
Copy OK

Track 18

Filename C:\EAC_RIPS\Jonathan Crow - Yehonatan Berick - 2009 - Bйla Bartуk 44 Duos for two violins\18 - , Hungarian March 2. Tempo di marcia.wav

Peak level 64.8 %
Track quality 99.8 %
Test CRC 6E462398
Copy CRC 6E462398
Track not present in AccurateRip database
Copy OK

Track 19

Filename C:\EAC_RIPS\Jonathan Crow - Yehonatan Berick - 2009 - Bйla Bartуk 44 Duos for two violins\19 - , A Fairy Tale. Molto tranquillo.wav

Peak level 8.9 %
Track quality 99.8 %
Test CRC 19ABCCB2
Copy CRC 19ABCCB2
Track not present in AccurateRip database
Copy OK

Track 20

Filename C:\EAC_RIPS\Jonathan Crow - Yehonatan Berick - 2009 - Bйla Bartуk 44 Duos for two violins\20 - , A Rhythm Song. Allegretto - Meno mosso.wav

Peak level 45.8 %
Track quality 100.0 %
Test CRC DCA2CFBA
Copy CRC DCA2CFBA
Track not present in AccurateRip database
Copy OK

Track 21

Filename C:\EAC_RIPS\Jonathan Crow - Yehonatan Berick - 2009 - Bйla Bartуk 44 Duos for two violins\21 - , New Year's Song 1. Adagio - Molto tranquillo.wav

Peak level 20.8 %
Track quality 100.0 %
Test CRC 583DFCF0
Copy CRC 583DFCF0
Track not present in AccurateRip database
Copy OK

Track 22

Filename C:\EAC_RIPS\Jonathan Crow - Yehonatan Berick - 2009 - Bйla Bartуk 44 Duos for two violins\22 - , Mosquito Dance. Allegro molto.wav

Peak level 39.2 %
Track quality 100.0 %
Test CRC 69602398
Copy CRC 69602398
Track not present in AccurateRip database
Copy OK

Track 23

Filename C:\EAC_RIPS\Jonathan Crow - Yehonatan Berick - 2009 - Bйla Bartуk 44 Duos for two violins\23 - , Bride's Farewell. Lento rubato.wav

Peak level 50.2 %
Track quality 100.0 %
Test CRC B107ACDC
Copy CRC B107ACDC
Track not present in AccurateRip database
Copy OK

Track 24

Filename C:\EAC_RIPS\Jonathan Crow - Yehonatan Berick - 2009 - Bйla Bartуk 44 Duos for two violins\24 - , Comic Song. Allegro scherzando - Meno mosso.wav

Peak level 75.9 %
Track quality 100.0 %
Test CRC 2BBBCCE2
Copy CRC 2BBBCCE2
Track not present in AccurateRip database
Copy OK

Track 25

Filename C:\EAC_RIPS\Jonathan Crow - Yehonatan Berick - 2009 - Bйla Bartуk 44 Duos for two violins\25 - , Hungarian Song 2. Allegretto, leggiero - Meno mosso.wav

Peak level 35.2 %
Track quality 100.0 %
Test CRC 6446D00C
Copy CRC 6446D00C
Track not present in AccurateRip database
Copy OK

Track 26

Filename C:\EAC_RIPS\Jonathan Crow - Yehonatan Berick - 2009 - Bйla Bartуk 44 Duos for two violins\26 - , Teasing Song 2. Scherzando.wav

Peak level 54.0 %
Track quality 100.0 %
Test CRC F9788AC3
Copy CRC F9788AC3
Track not present in AccurateRip database
Copy OK

Track 27

Filename C:\EAC_RIPS\Jonathan Crow - Yehonatan Berick - 2009 - Bйla Bartуk 44 Duos for two violins\27 - , Limping Dance. Allegro non troppo - Piщ mosso.wav

Peak level 47.7 %
Track quality 100.0 %
Test CRC 2F33F09A
Copy CRC 2F33F09A
Track not present in AccurateRip database
Copy OK

Track 28

Filename C:\EAC_RIPS\Jonathan Crow - Yehonatan Berick - 2009 - Bйla Bartуk 44 Duos for two violins\28 - , Sorrow. Lento, poco rubato.wav

Peak level 54.6 %
Track quality 100.0 %
Test CRC 327D9F85
Copy CRC 327D9F85
Track not present in AccurateRip database
Copy OK

Track 29

Filename C:\EAC_RIPS\Jonathan Crow - Yehonatan Berick - 2009 - Bйla Bartуk 44 Duos for two violins\29 - , New Year's Song 2. Tempo giusto.wav

Peak level 35.5 %
Track quality 99.7 %
Test CRC 8C25A36B
Copy CRC 8C25A36B
Track not present in AccurateRip database
Copy OK

Track 30

Filename C:\EAC_RIPS\Jonathan Crow - Yehonatan Berick - 2009 - Bйla Bartуk 44 Duos for two violins\30 - , New Year's Song 3. Allegro - Meno mosso - Tempo 1.wav

Peak level 66.2 %
Track quality 100.0 %
Test CRC 5D575988
Copy CRC 5D575988
Track not present in AccurateRip database
Copy OK

Track 31

Filename C:\EAC_RIPS\Jonathan Crow - Yehonatan Berick - 2009 - Bйla Bartуk 44 Duos for two violins\31 - , New Year's Song 4. Allegro non troppo.wav

Peak level 47.4 %
Track quality 100.0 %
Test CRC 9FFBFAC8
Copy CRC 9FFBFAC8
Track not present in AccurateRip database
Copy OK

Track 32

Filename C:\EAC_RIPS\Jonathan Crow - Yehonatan Berick - 2009 - Bйla Bartуk 44 Duos for two violins\32 - , Dancing Song from Maramaros. Allegro giocoso.wav

Peak level 51.2 %
Track quality 100.0 %
Test CRC A9D0030F
Copy CRC A9D0030F
Track not present in AccurateRip database
Copy OK

Track 33

Filename C:\EAC_RIPS\Jonathan Crow - Yehonatan Berick - 2009 - Bйla Bartуk 44 Duos for two violins\33 - , Harvest Song. Lento - Piщ mosso, parlando - Tempo 1 - Tempo 2.wav

Peak level 60.3 %
Track quality 100.0 %
Test CRC 6145536B
Copy CRC 6145536B
Track not present in AccurateRip database
Copy OK

Track 34

Filename C:\EAC_RIPS\Jonathan Crow - Yehonatan Berick - 2009 - Bйla Bartуk 44 Duos for two violins\34 - , Counting Song. Allegramente.wav

Peak level 48.6 %
Track quality 100.0 %
Test CRC BCDCE874
Copy CRC BCDCE874
Track not present in AccurateRip database
Copy OK

Track 35

Filename C:\EAC_RIPS\Jonathan Crow - Yehonatan Berick - 2009 - Bйla Bartуk 44 Duos for two violins\35 - , Ruthenian Kolomejka. Allegro - Meno mosso - Tempo 1.wav

Peak level 56.1 %
Track quality 100.0 %
Test CRC 572CD86D
Copy CRC 572CD86D
Track not present in AccurateRip database
Copy OK

Track 36

Filename C:\EAC_RIPS\Jonathan Crow - Yehonatan Berick - 2009 - Bйla Bartуk 44 Duos for two violins\36 - , 1.The Bagpipe. Allegro molto 2. Variation of No. 36. Allegro molto.wav

Peak level 50.4 %
Track quality 100.0 %
Test CRC 15F7E1D4
Copy CRC 15F7E1D4
Track not present in AccurateRip database
Copy OK

Track 37

Filename C:\EAC_RIPS\Jonathan Crow - Yehonatan Berick - 2009 - Bйla Bartуk 44 Duos for two violins\37 - , Prelude and Canon. Lento - Un poco piщ lento - Molto tranquillo - Risoluto, non troppo vivace - Allegro molto.wav

Peak level 54.7 %
Track quality 100.0 %
Test CRC C5B9B200
Copy CRC C5B9B200
Track not present in AccurateRip database
Copy OK

Track 38

Filename C:\EAC_RIPS\Jonathan Crow - Yehonatan Berick - 2009 - Bйla Bartуk 44 Duos for two violins\38 - , Rumanian Whirling Dance. Allegro.wav

Peak level 63.3 %
Track quality 100.0 %
Test CRC 7F700B00
Copy CRC 7F700B00
Track not present in AccurateRip database
Copy OK

Track 39

Filename C:\EAC_RIPS\Jonathan Crow - Yehonatan Berick - 2009 - Bйla Bartуk 44 Duos for two violins\39 - , Serbian Dance. Allegro molto.wav

Peak level 70.7 %
Track quality 99.7 %
Test CRC EA185828
Copy CRC EA185828
Track not present in AccurateRip database
Copy OK

Track 40

Filename C:\EAC_RIPS\Jonathan Crow - Yehonatan Berick - 2009 - Bйla Bartуk 44 Duos for two violins\40 - , Walachian Dance. Comodo - Piщ lento - Tempo 1 - Piщ mosso.wav

Peak level 62.7 %
Track quality 100.0 %
Test CRC ACCDBF6F
Copy CRC ACCDBF6F
Track not present in AccurateRip database
Copy OK

Track 41

Filename C:\EAC_RIPS\Jonathan Crow - Yehonatan Berick - 2009 - Bйla Bartуk 44 Duos for two violins\41 - , Scherzo. Vivace.wav

Peak level 49.3 %
Track quality 100.0 %
Test CRC A71B4138
Copy CRC A71B4138
Track not present in AccurateRip database
Copy OK

Track 42

Filename C:\EAC_RIPS\Jonathan Crow - Yehonatan Berick - 2009 - Bйla Bartуk 44 Duos for two violins\42 - , Arabian Song. Allegro.wav

Peak level 47.5 %
Track quality 100.0 %
Test CRC 19BF6A69
Copy CRC 19BF6A69
Track not present in AccurateRip database
Copy OK

Track 43

Filename C:\EAC_RIPS\Jonathan Crow - Yehonatan Berick - 2009 - Bйla Bartуk 44 Duos for two violins\43 - , Pizzicato. Allegretto.wav

Peak level 75.1 %
Track quality 100.0 %
Test CRC 054DB93F
Copy CRC 054DB93F
Track not present in AccurateRip database
Copy OK

Track 44

Filename C:\EAC_RIPS\Jonathan Crow - Yehonatan Berick - 2009 - Bйla Bartуk 44 Duos for two violins\44 - , Transylvanian Dance (Ardeliana). Allegro moderato - Piщ moderato.wav

Peak level 73.0 %
Track quality 100.0 %
Test CRC F72A4BE2
Copy CRC F72A4BE2
Track not present in AccurateRip database
Copy OK


None of the tracks are present in the AccurateRip database

No errors occurred

End of status report

EAC LOG CD2
Exact Audio Copy V0.99 prebeta 5 from 4. May 2009

EAC extraction logfile from 22. August 2010, 15:15

Jonathan Crow - Yehonatan Berick / Luciano Berio - Duetti per due Violini

Used drive : HL-DT-STDVD-RAM GH22NS30 Adapter: 0 ID: 0

Read mode : Secure
Utilize accurate stream : Yes
Defeat audio cache : Yes
Make use of C2 pointers : No

Read offset correction : 102
Overread into Lead-In and Lead-Out : Yes
Fill up missing offset samples with silence : Yes
Delete leading and trailing silent blocks : No
Null samples used in CRC calculations : Yes
Used interface : Installed external ASPI interface
Gap handling : Appended to previous track

Used output format : User Defined Encoder
Selected bitrate : 320 kBit/s
Quality : High
Add ID3 tag : No
Command line compressor : C:\Program Files\Exact Audio Copy\Flac\flac.exe
Additional command line options : -V -8 -T "artist=%a" -T "title=%t" -T "album=%g" -T "date=%y" -T "tracknumber=%n" -T "genre=%m" %s


TOC of the extracted CD

Track | Start | Length | Start sector | End sector
---------------------------------------------------------
1 | 0:00.00 | 0:53.07 | 0 | 3981
2 | 0:53.07 | 0:35.58 | 3982 | 6664
3 | 1:28.65 | 1:14.20 | 6665 | 12234
4 | 2:43.10 | 0:52.10 | 12235 | 16144
5 | 3:35.20 | 0:59.17 | 16145 | 20586
6 | 4:34.37 | 1:28.42 | 20587 | 27228
7 | 6:03.04 | 0:41.45 | 27229 | 30348
8 | 6:44.49 | 2:01.62 | 30349 | 39485
9 | 8:46.36 | 1:14.58 | 39486 | 45093
10 | 10:01.19 | 1:21.02 | 45094 | 51170
11 | 11:22.21 | 0:45.53 | 51171 | 54598
12 | 12:07.74 | 0:54.73 | 54599 | 58721
13 | 13:02.72 | 1:30.55 | 58722 | 65526
14 | 14:33.52 | 0:56.57 | 65527 | 69783
15 | 15:30.34 | 0:37.68 | 69784 | 72626
16 | 16:08.27 | 1:13.67 | 72627 | 78168
17 | 17:22.19 | 1:44.20 | 78169 | 85988
18 | 19:06.39 | 1:25.55 | 85989 | 92418
19 | 20:32.19 | 0:39.36 | 92419 | 95379
20 | 21:11.55 | 1:04.68 | 95380 | 100247
21 | 22:16.48 | 0:29.04 | 100248 | 102426
22 | 22:45.52 | 0:53.61 | 102427 | 106462
23 | 23:39.38 | 1:20.51 | 106463 | 112513
24 | 25:00.14 | 0:49.48 | 112514 | 116236
25 | 25:49.62 | 0:45.35 | 116237 | 119646
26 | 26:35.22 | 1:00.26 | 119647 | 124172
27 | 27:35.48 | 0:48.22 | 124173 | 127794
28 | 28:23.70 | 1:00.36 | 127795 | 132330
29 | 29:24.31 | 3:01.59 | 132331 | 145964
30 | 32:26.15 | 1:06.42 | 145965 | 150956
31 | 33:32.57 | 1:15.53 | 150957 | 156634
32 | 34:48.35 | 2:02.71 | 156635 | 165855
33 | 36:51.31 | 2:19.10 | 165856 | 176290
34 | 39:10.41 | 4:21.05 | 176291 | 195870


Track 1

Filename C:\EAC_RIPS\Jonathan Crow - Yehonatan Berick - - Luciano Berio - Duetti per due Violini\01 - , BЙLA (Bartуk).wav

Pre-gap length 0:00:02.00

Peak level 27.3 %
Track quality 100.0 %
Test CRC 1A5F89A5
Copy CRC 1A5F89A5
Track not present in AccurateRip database
Copy OK

Track 2

Filename C:\EAC_RIPS\Jonathan Crow - Yehonatan Berick - - Luciano Berio - Duetti per due Violini\02 - , SHLOMIT (Almog).wav

Peak level 69.5 %
Track quality 100.0 %
Test CRC 1E4744B6
Copy CRC 1E4744B6
Track not present in AccurateRip database
Copy OK

Track 3

Filename C:\EAC_RIPS\Jonathan Crow - Yehonatan Berick - - Luciano Berio - Duetti per due Violini\03 - , YOSSI (Pecker).wav

Peak level 55.7 %
Track quality 100.0 %
Test CRC B709D9DF
Copy CRC B709D9DF
Track not present in AccurateRip database
Copy OK

Track 4

Filename C:\EAC_RIPS\Jonathan Crow - Yehonatan Berick - - Luciano Berio - Duetti per due Violini\04 - , RODION (Schedrin).wav

Peak level 21.6 %
Track quality 99.7 %
Test CRC 4F4D1FB8
Copy CRC 4F4D1FB8
Track not present in AccurateRip database
Copy OK

Track 5

Filename C:\EAC_RIPS\Jonathan Crow - Yehonatan Berick - - Luciano Berio - Duetti per due Violini\05 - , MAJA (Pliseckaja).wav

Peak level 56.8 %
Track quality 100.0 %
Test CRC 01B63D7E
Copy CRC 01B63D7E
Track not present in AccurateRip database
Copy OK

Track 6

Filename C:\EAC_RIPS\Jonathan Crow - Yehonatan Berick - - Luciano Berio - Duetti per due Violini\06 - , BRUNO (Maderna).wav

Peak level 57.2 %
Track quality 100.0 %
Test CRC 3A84AF85
Copy CRC 3A84AF85
Track not present in AccurateRip database
Copy OK

Track 7

Filename C:\EAC_RIPS\Jonathan Crow - Yehonatan Berick - - Luciano Berio - Duetti per due Violini\07 - , CAMILLA (Adami).wav

Peak level 34.4 %
Track quality 100.0 %
Test CRC 8FF6C4F3
Copy CRC 8FF6C4F3
Track not present in AccurateRip database
Copy OK

Track 8

Filename C:\EAC_RIPS\Jonathan Crow - Yehonatan Berick - - Luciano Berio - Duetti per due Violini\08 - , PEPPINO (Di Giugno).wav

Peak level 50.6 %
Track quality 100.0 %
Test CRC BCB7EBF1
Copy CRC BCB7EBF1
Track not present in AccurateRip database
Copy OK

Track 9

Filename C:\EAC_RIPS\Jonathan Crow - Yehonatan Berick - - Luciano Berio - Duetti per due Violini\09 - , MARCELLO (Panni).wav

Peak level 20.4 %
Track quality 100.0 %
Test CRC DBA44C5B
Copy CRC DBA44C5B
Track not present in AccurateRip database
Copy OK

Track 10

Filename C:\EAC_RIPS\Jonathan Crow - Yehonatan Berick - - Luciano Berio - Duetti per due Violini\10 - , GIORGIO FEDERICO (Ghedini).wav

Peak level 34.2 %
Track quality 99.8 %
Test CRC EA014AE1
Copy CRC EA014AE1
Track not present in AccurateRip database
Copy OK

Track 11

Filename C:\EAC_RIPS\Jonathan Crow - Yehonatan Berick - - Luciano Berio - Duetti per due Violini\11 - , VALERIO (Adami).wav

Peak level 58.6 %
Track quality 100.0 %
Test CRC 8456EF9D
Copy CRC 8456EF9D
Track not present in AccurateRip database
Copy OK

Track 12

Filename C:\EAC_RIPS\Jonathan Crow - Yehonatan Berick - - Luciano Berio - Duetti per due Violini\12 - , DANIELA (Rabinovitch).wav

Peak level 19.6 %
Track quality 100.0 %
Test CRC 0FFCB42D
Copy CRC 0FFCB42D
Track not present in AccurateRip database
Copy OK

Track 13

Filename C:\EAC_RIPS\Jonathan Crow - Yehonatan Berick - - Luciano Berio - Duetti per due Violini\13 - , JEANNE (Panni).wav

Peak level 70.3 %
Track quality 100.0 %
Test CRC 68FC3A3A
Copy CRC 68FC3A3A
Track not present in AccurateRip database
Copy OK

Track 14

Filename C:\EAC_RIPS\Jonathan Crow - Yehonatan Berick - - Luciano Berio - Duetti per due Violini\14 - , PIERRE (Boulez.wav

Peak level 9.1 %
Track quality 99.8 %
Test CRC A132A697
Copy CRC A132A697
Track not present in AccurateRip database
Copy OK

Track 15

Filename C:\EAC_RIPS\Jonathan Crow - Yehonatan Berick - - Luciano Berio - Duetti per due Violini\15 - , TATJANA (Globokar).wav

Peak level 15.9 %
Track quality 100.0 %
Test CRC 37F3DF1E
Copy CRC 37F3DF1E
Track not present in AccurateRip database
Copy OK

Track 16

Filename C:\EAC_RIPS\Jonathan Crow - Yehonatan Berick - - Luciano Berio - Duetti per due Violini\16 - , RIVI (Pecker).wav

Peak level 18.5 %
Track quality 100.0 %
Test CRC BE73667C
Copy CRC BE73667C
Track not present in AccurateRip database
Copy OK

Track 17

Filename C:\EAC_RIPS\Jonathan Crow - Yehonatan Berick - - Luciano Berio - Duetti per due Violini\17 - , LEONARDO (Pinzauti).wav

Peak level 22.9 %
Track quality 99.8 %
Test CRC 372A9FF3
Copy CRC 372A9FF3
Track not present in AccurateRip database
Copy OK

Track 18

Filename C:\EAC_RIPS\Jonathan Crow - Yehonatan Berick - - Luciano Berio - Duetti per due Violini\18 - , PIERO (Farulli).wav

Peak level 48.7 %
Track quality 100.0 %
Test CRC 785581B4
Copy CRC 785581B4
Track not present in AccurateRip database
Copy OK

Track 19

Filename C:\EAC_RIPS\Jonathan Crow - Yehonatan Berick - - Luciano Berio - Duetti per due Violini\19 - , ANNIE (Neuberger).wav

Peak level 47.8 %
Track quality 100.0 %
Test CRC 90F0952E
Copy CRC 90F0952E
Track not present in AccurateRip database
Copy OK

Track 20

Filename C:\EAC_RIPS\Jonathan Crow - Yehonatan Berick - - Luciano Berio - Duetti per due Violini\20 - , FIAMMA (Nicolodi).wav

Peak level 14.4 %
Track quality 100.0 %
Test CRC 46824A88
Copy CRC 46824A88
Track not present in AccurateRip database
Copy OK

Track 21

Filename C:\EAC_RIPS\Jonathan Crow - Yehonatan Berick - - Luciano Berio - Duetti per due Violini\21 - , VINKO (Globokar).wav

Peak level 58.6 %
Track quality 100.0 %
Test CRC E6B5A2D8
Copy CRC E6B5A2D8
Track not present in AccurateRip database
Copy OK

Track 22

Filename C:\EAC_RIPS\Jonathan Crow - Yehonatan Berick - - Luciano Berio - Duetti per due Violini\22 - , FRANCO (Gulli).wav

Peak level 10.8 %
Track quality 99.8 %
Test CRC 2F516E97
Copy CRC 2F516E97
Track not present in AccurateRip database
Copy OK

Track 23

Filename C:\EAC_RIPS\Jonathan Crow - Yehonatan Berick - - Luciano Berio - Duetti per due Violini\23 - , ALDO (Bennici).wav

Peak level 9.0 %
Track quality 99.8 %
Test CRC B1AA848B
Copy CRC B1AA848B
Track not present in AccurateRip database
Copy OK

Track 24

Filename C:\EAC_RIPS\Jonathan Crow - Yehonatan Berick - - Luciano Berio - Duetti per due Violini\24 - , CARLO (Chiarappa).wav

Peak level 22.1 %
Track quality 100.0 %
Test CRC 1A54A380
Copy CRC 1A54A380
Track not present in AccurateRip database
Copy OK

Track 25

Filename C:\EAC_RIPS\Jonathan Crow - Yehonatan Berick - - Luciano Berio - Duetti per due Violini\25 - , HENRI (Pousseur).wav

Peak level 31.1 %
Track quality 99.7 %
Test CRC A6AF84DC
Copy CRC A6AF84DC
Track not present in AccurateRip database
Copy OK

Track 26

Filename C:\EAC_RIPS\Jonathan Crow - Yehonatan Berick - - Luciano Berio - Duetti per due Violini\26 - , ALFREDO (Fiorenzani).wav

Peak level 33.5 %
Track quality 100.0 %
Test CRC 85F9B7DB
Copy CRC 85F9B7DB
Track not present in AccurateRip database
Copy OK

Track 27

Filename C:\EAC_RIPS\Jonathan Crow - Yehonatan Berick - - Luciano Berio - Duetti per due Violini\27 - , IGOR (Stravinsky).wav

Peak level 31.7 %
Track quality 100.0 %
Test CRC A94921FA
Copy CRC A94921FA
Track not present in AccurateRip database
Copy OK

Track 28

Filename C:\EAC_RIPS\Jonathan Crow - Yehonatan Berick - - Luciano Berio - Duetti per due Violini\28 - , ALFRED (Schlee).wav

Peak level 57.8 %
Track quality 100.0 %
Test CRC 22E36F90
Copy CRC 22E36F90
Track not present in AccurateRip database
Copy OK

Track 29

Filename C:\EAC_RIPS\Jonathan Crow - Yehonatan Berick - - Luciano Berio - Duetti per due Violini\29 - , MASSIMO (Mila).wav

Peak level 33.8 %
Track quality 100.0 %
Test CRC 4DE157BA
Copy CRC 4DE157BA
Track not present in AccurateRip database
Copy OK

Track 30

Filename C:\EAC_RIPS\Jonathan Crow - Yehonatan Berick - - Luciano Berio - Duetti per due Violini\30 - , MAURICIO (Kagel).wav

Peak level 49.2 %
Track quality 100.0 %
Test CRC E61FA023
Copy CRC E61FA023
Track not present in AccurateRip database
Copy OK

Track 31

Filename C:\EAC_RIPS\Jonathan Crow - Yehonatan Berick - - Luciano Berio - Duetti per due Violini\31 - , MAURICE (Fleuret).wav

Peak level 61.8 %
Track quality 99.8 %
Test CRC F1F68BC5
Copy CRC F1F68BC5
Track not present in AccurateRip database
Copy OK

Track 32

Filename C:\EAC_RIPS\Jonathan Crow - Yehonatan Berick - - Luciano Berio - Duetti per due Violini\32 - , LORIN (Maazel).wav

Peak level 73.1 %
Track quality 100.0 %
Test CRC 7FEDAEE9
Copy CRC 7FEDAEE9
Track not present in AccurateRip database
Copy OK

Track 33

Filename C:\EAC_RIPS\Jonathan Crow - Yehonatan Berick - - Luciano Berio - Duetti per due Violini\33 - , LELE (d'Amico).wav

Peak level 20.5 %
Track quality 99.9 %
Test CRC E5AB530C
Copy CRC E5AB530C
Track not present in AccurateRip database
Copy OK

Track 34

Filename C:\EAC_RIPS\Jonathan Crow - Yehonatan Berick - - Luciano Berio - Duetti per due Violini\34 - , EDOARDO (Sanguineti).wav

Peak level 98.7 %
Track quality 100.0 %
Test CRC AC8C9CBC
Copy CRC AC8C9CBC
Track not present in AccurateRip database
Copy OK


None of the tracks are present in the AccurateRip database

No errors occurred

End of status report

ADVERTISING » High Speed Download « ADVERTISING




Posted By: trankilizan Date: 18 Oct 2021 15:16:07
Many thanks..
Posted By: evanmaga Date: 18 Oct 2021 19:15:26
this is a very rarety, thank you very much
Recent searches: