Loading...
Done
Home > Music
Chuck Mangione - Feels So Good (1977)
Posted By : aeolos | Date : 01 Jun 2022 13:57 | Comments : 2

Chuck Mangione - Feels So Good
Label: A&M | EAC Img | FLAC+CUE+LOG | 270MB | HQ MP3 CBR | 320kbps-102MB | covers included
Genre: Jazz, Jazz-Pop, Crossover Jazz

Actually this goes for a friend of mine who's vinyl got screwed up. I hope you will enjoy it too. The last of the finest albums Mangione did, Feels So Good, became also a major success especially due to the title cut. Highly recommended. Have fun!

Product Details

# Audio CD (October 25, 2021)
# Original Release Date: 1977
# Number of Discs: 1
# Label: A&M

Track Listings

1. Feels So Good
2. Maui-Waui
3. Theme from "Side Street"
4. Hide & Seek (Ready or Not Here I Come)
5. Last Dance
6. XIth Commandment




Review by Scott Yanow

Due to the title cut, this was a huge seller when it originally came out. Reissued on CD, this set from fl├╝gelhornist Chuck Mangione (which helped give guitarist Grant Geissman some fame) is actually stronger from the jazz standpoint than Mangione's subsequent dates.
The leader has some good solos, as does Geissman and saxophonist Chris Vadala, and the quintet's ensembles are generally both sparse and attractive. Pity that in ways this was Chuck Mangione's last worthwhile release to date; success did stunt his artistic growth.


Log File
Exact Audio Copy V0.99 prebeta 5 from 4. May 2009

EAC extraction logfile from 1. June 2009, 11:24

Chuck Mangione / Feels So Good

Used drive : Optiarc DVD RW AD-7203S Adapter: 1 ID: 1

Read mode : Secure
Utilize accurate stream : Yes
Defeat audio cache : No
Make use of C2 pointers : Yes

Read offset correction : 48
Overread into Lead-In and Lead-Out : No
Fill up missing offset samples with silence : Yes
Delete leading and trailing silent blocks : No
Null samples used in CRC calculations : No
Used interface : Native Win32 interface for Win NT & 2000

Used output format : Internal WAV Routines
Sample format : 44.100 Hz; 16 Bit; Stereo


TOC of the extracted CD

Track | Start | Length | Start sector | End sector
---------------------------------------------------------
1 | 0:00.33 | 9:42.55 | 33 | 43737
2 | 9:43.13 | 10:13.02 | 43738 | 89714
3 | 19:56.15 | 2:05.50 | 89715 | 99139
4 | 22:01.65 | 6:25.03 | 99140 | 128017
5 | 28:26.68 | 10:54.40 | 128018 | 177107
6 | 39:21.33 | 6:36.45 | 177108 | 206852


Range status and errors

Selected range

Filename C:\Documents and Settings\Chuck Mangione - Feels So Good\Chuck Mangione - Feels So Good.wav

Peak level 100.0 %
Range quality 100.0 %
Copy CRC DB0F0A12
Copy OK

No errors occurred

End of status report



Links

pass: tristan



You are welcome to visit my BLOG at anytime.
Posted By: fastantico Date: 02 Jun 2022 01:57
Thanks a lot!
Posted By: hs! Date: 03 Jun 2022 00:05
Thanks very much. \0/ _O_

I have waited to upgrade my poor old LP. Now I can. Grazie !
DONATE AVAXHOME:

Donate please!