Loading...
Done
Home > Music > Celtic
Posted By : unyo | Date : 18 Oct 2021 04:27:37 | Comments : 2 |
Milladoiro - A Galicia de Maeloc

Milladoiro - A Galicia de Maeloc (1979)
EAC Rip | APE, image+cue, log | 242 Mb | MP3 CBR 320Kbps | 104 Mb | 13 tracks | Covers
Celtic / Galician Folk | RAR 3% Rec. | Time: 42:32 | FileSonic, FileServe

8 Galician traditional tunes, one Irish and 4 original compositions. This record means the debut of the Milladoiro style. For the first time Galician bagpipes, ocarina, hurdy-gurdy, harp, clavecin, flutes, uillean pipe... are used together in Galician music. It was the first Galician album to be published on the French market.


Back

Milladoiro site

Recorded in 1979 at Estudios Audiofilm, Madrid. 8 Galician traditional tunes, one Irish and 4 original compositions. This record means the debut of the Milladoiro style. For the first time Galician bagpipes, ocarina, hurdy-gurdy, harp, clavecin, flutes, uillean pipe... are used together in Galician music. It was the first Galician album to be published on the French market.


Milladoiro

“We had known each other for a long time, some of us since the early 70’s, some others for all of our lives”

Three of them had been touring throughout Galicia, playing at fiestas, traditional festivals, theatres... Always in contact with the old ‘gaiteiros’ (bagpipers), heirs to the tradition: Os Campaneiros, Os Irmáns Graceiras, Os Areeiras, Os Rosales... and many more besides were colleagues, masters and companions. They are Xosé V. Ferreirós, Fernando Casal and Ramón García Rei who were together “Faíscas do Xiabre”, a band of traditional music born on the banks of river Ulla in Catoira, and who left a beautiful record entitled “In Memoriam”.

At the same time two of them were musicians who had become passionate for the Middle Ages instruments and sounds. At that time the hurdy-gurdy, the citola, the freixolé had made up their steps into a kind of pilgrimage throughout Galicia searching for those who made them and owned them or where they could be found. These were times of scarcity, and enthusiasm was a testimony of a hard reality, but even so they bet on starting the way. They are Rodrigo Romaní and Antón Seoane. As a fruit of their work the record “Milladoiro” was published in 1978.

They met a man who at that time was starting the core of what later would be the Chamber Ensemble of the University of Compostela. The old music scores of cathedrals, antique music archives were his zeal, and so they became six with the incorporation of Xosé A. Méndez. They just had to find a violinist, a nearly impossible task in Galicia at that time; but emigration was generous and gave back to the country somebody who had left one day: Laura Quintillán, violinist of Milladoiro in 1979-1980. Then Michel Canada took her place.

At present Harry.c is the violinist of Milladoiro.

In the year 2000 Rodrigo Romaní left the band, and therefore the guitarist Manu Conde and the harpist Roi Casal joined it.

“We shared and carry on sharing the passion for music and our country, but being aware of the fact that the mythic Way of Santiago is a return way, and therefore that's the origin of our name. The 'milladoiros' that led the steps of the pilgrims coming to Galicia, allowed us to open ourselves to the many influences that have enriched this corner of Europe.

We are from Galicia and feel from Galicia to the extent that we consider we know the rich and varied time-space mosaic in which we live. We do not try to make a manifesto with our music. Our only purpose is to amuse ourselves and the others with that treasure which are the melodies, fruit of many anonymous musicians, that we have inherited from this land.

Our dream is to give back to Galicia as much as we have received in the form of beautiful and alive music which helps us, as a country, to preserve a place of collective identity so that we can keep on existing under the unavoidable mantle of the global village.

So this has been and still is our small story, a story that began in 1978 and which we showed out for the first time on the 15th of May of 1979 at the Auditorium de los Salesianos in A Coruña.”


1983


Tracklist:

01. DANZA DE SAN ROQUE DE HÍO (4:03)
02. TECENDO LIÑO (1:46)
03. DANZA DE CARIÑO (2:33)
04. A BRUXA Fragmento (3:11)
05. MUIÑEIRA DO AREAL (2:45)
06. SI BHEAG SI MHOR - JOHN RYAN'S POLKA (3:32)
07. ROSALÍA (3:54)
08. ALALÁ - MUIÑEIRA - JIGA (4:02)
09. DANZA DE ASTURESES (2:46)
10. ILA VAI Ó MAR (4:09)
11. PASODOBLE DO BERBÉS (3:02)
12. AXÉITAME A POLAINIÑA (4:16)
13. POLCAS (de Arousa e do Tapal) (2:29)

EAC log
Exact Audio Copy V0.99 prebeta 4 from 23. January 2008

EAC extraction logfile from 24. April 2010, 12:01

Milladoiro / A Galicia de Maeloc

Used drive : PBDS DVD+-RW DS-8W1P Adapter: 1 ID: 0

Read mode : Secure
Utilize accurate stream : Yes
Defeat audio cache : Yes
Make use of C2 pointers : No

Read offset correction : 594
Overread into Lead-In and Lead-Out : No
Fill up missing offset samples with silence : Yes
Delete leading and trailing silent blocks : No
Null samples used in CRC calculations : Yes
Used interface : Native Win32 interface for Win NT & 2000

Used output format : Internal WAV Routines
Sample format : 44.100 Hz; 16 Bit; Stereo


TOC of the extracted CD

Track | Start | Length | Start sector | End sector
---------------------------------------------------------
1 | 0:00.32 | 4:03.35 | 32 | 18291
2 | 4:03.67 | 1:46.63 | 18292 | 26304
3 | 5:50.55 | 2:33.12 | 26305 | 37791
4 | 8:23.67 | 3:11.48 | 37792 | 52164
5 | 11:35.40 | 2:45.12 | 52165 | 64551
6 | 14:20.52 | 3:32.08 | 64552 | 80459
7 | 17:52.60 | 3:54.05 | 80460 | 98014
8 | 21:46.65 | 4:02.55 | 98015 | 116219
9 | 25:49.45 | 2:46.22 | 116220 | 128691
10 | 28:35.67 | 4:09.45 | 128692 | 147411
11 | 32:45.37 | 3:02.40 | 147412 | 161101
12 | 35:48.02 | 4:16.15 | 161102 | 180316
13 | 40:04.17 | 2:29.03 | 180317 | 191494


Range status and errors

Selected range

Filename C:\Users\Manuel\Music\Milladoiro\1979 - A Galicia de Maeloc\Milladoiro - A Galicia de Maeloc.wav

Peak level 100.0 %
Range quality 100.0 %
Test CRC A38729E3
Copy CRC A38729E3
Copy OK

No errors occurred


AccurateRip summary

Track 1 cannot be verified as accurate (confidence 1) [3E972EB9], AccurateRip returned [9B51327F]
Track 2 cannot be verified as accurate (confidence 1) [7583A6D2], AccurateRip returned [F9E8D3F7]
Track 3 cannot be verified as accurate (confidence 1) [209BC223], AccurateRip returned [0A70DDBD]
Track 4 cannot be verified as accurate (confidence 1) [E1F76E71], AccurateRip returned [D35F4102]
Track 5 cannot be verified as accurate (confidence 1) [9E795EB8], AccurateRip returned [9BF0AE1D]
Track 6 cannot be verified as accurate (confidence 1) [224D2FCB], AccurateRip returned [28D503E0]
Track 7 cannot be verified as accurate (confidence 1) [4D9D7B4C], AccurateRip returned [8EBEA627]
Track 8 cannot be verified as accurate (confidence 1) [9404203C], AccurateRip returned [9CCB347B]
Track 9 cannot be verified as accurate (confidence 1) [5018305B], AccurateRip returned [68283B6A]
Track 10 cannot be verified as accurate (confidence 1) [4B06090C], AccurateRip returned [8E9A07EC]
Track 11 cannot be verified as accurate (confidence 1) [3467C8DC], AccurateRip returned [42B2741B]
Track 12 cannot be verified as accurate (confidence 1) [D204FCFC], AccurateRip returned [B76171C1]
Track 13 cannot be verified as accurate (confidence 1) [BEE767E9], AccurateRip returned [417B60B2]

No tracks could be verified as accurate
You may have a different pressing from the one(s) in the database

End of status report

AudioChecker log
AUDIOCHECKER v2.0 beta (build 457) - by Dester - [email protected]
~~~~~~~~~~~~~~~~~~~~~~~~~~~~~~~~~~
-=== DO NOT EDIT THIS FILE! ===-

Path: ...\Milladoiro - 1979 - A Galicia de Maeloc

1 -=- Milladoiro - A Galicia de Maeloc.ape -=- CDDA (100%)

120952628

AccurateRip (CUETools 1.9.5a) log
[Verification date: 25/04/2022 18:07:04]
[AccurateRip ID: 0013e143-00c90863-a609f90d] found.
Pregap length 00:00:32.
Track [ CRC ] Status
01 [3e972eb9] (00/01) No match
02 [7583a6d2] (00/01) No match
03 [209bc223] (00/01) No match
04 [e1f76e71] (00/01) No match
05 [9e795eb8] (00/01) No match
06 [224d2fcb] (00/01) No match
07 [4d9d7b4c] (00/01) No match
08 [9404203c] (00/01) No match
09 [5018305b] (00/01) No match
10 [4b06090c] (00/01) No match
11 [3467c8dc] (00/01) No match
12 [d204fcfc] (00/01) No match
13 [bee767e9] (00/01) No match
Offsetted by 89:
01 [9b51327f] (01/01) Accurately ripped
02 [f9e8d3f7] (01/01) Accurately ripped
03 [0a70ddbd] (01/01) Accurately ripped
04 [d35f4102] (01/01) Accurately ripped
05 [9bf0ae1d] (01/01) Accurately ripped
06 [28d503e0] (01/01) Accurately ripped
07 [8ebea627] (01/01) Accurately ripped
08 [9ccb347b] (01/01) Accurately ripped
09 [68283b6a] (01/01) Accurately ripped
10 [8e9a07ec] (01/01) Accurately ripped
11 [42b2741b] (01/01) Accurately ripped
12 [b76171c1] (01/01) Accurately ripped
13 [417b60b2] (01/01) Accurately ripped

Track Peak [ CRC32 ] [W/O NULL] [ LOG ]
-- 100,0 [A38729E3] [8D6322B0] CRC32
01 100,0 [764F7E24] [0EA620DE]
02 73,9 [3872C454] [2D3A98E9]
03 78,6 [45AC21F7] [E7A86FFD]
04 75,7 [1759B1B1] [69864EAA]
05 82,5 [9B966DD2] [F1AF9271]
06 78,9 [D982026E] [703E7BAE]
07 78,1 [CC2D5002] [CD3C8280]
08 82,6 [6200523F] [C5EFCDC1]
09 84,5 [33014BE5] [644B31EA]
10 62,2 [47976CF2] [2A19881A]
11 78,8 [ED519E2B] [71FEFA33]
12 62,5 [04D16E80] [5D1BE2CC]
13 79,1 [017B0D71] [741A4E58]


Milladoiro Albums

Many thanks to the original ripper - pachuezama!

FileSonic
Lossless:
MAGdM.part1.rar
MAGdM.part2.rar

MP3 (320 kbps):
MAGdM320.rar

FileServe
Lossless:
MAGdM.part1.rar
MAGdM.part2.rar

MP3 (320 kbps):
MAGdM320.rar


If links are dead, please send me a private message.
ADVERTISING » High Speed Download « ADVERTISING




Posted By: eisler444 Date: 18 Oct 2021 08:09:23
Спасибо!!!
Posted By: 23h Date: 18 Oct 2021 12:23:26
Thank you . . .
Recent searches: