Loading...
Done
Home > Music > Celtic
La Nef - Perceval. La quête du Graal - vol. 2
Posted By : yerbas07 | Date : 01 Mar 2022 11:37:21 | Comments : 2

La Nef - Perceval. La quête du Graal - vol. 2
EAC FLAC cue+scans (300 MB) | LOG | Accuraterip
Dorian DOR-90294 (2000) | medieval / Celtic


As in its previous productions, La Nef has created its own personal version of the myth of the Grail, a sort of original, timeless "collage,'' incorporating elements from medieval plays, Baroque Opera and more contemporary musical practice.
The second part of the diptych sets the story of Perceval in strange, unreal places, where he meets enigmatic characters such as the Fisher King, the Maiden and her Dead Love, the Hideous Damsel, and the Hermit, who guide him on his quest. In contrast to volumen 1, where the actions were more down-to-earth in nature, the scenes of volume 2 seem blurred, imprecise, and usntable. Perceval experiences short-lived events that melt away almost as soon as they appear. The musical treatment is different from that in volume 1, with unusual melodic modes, dissonant harmonies and muted tone colors.

tracking & performers

LE CHÂTEAU DU GRAAL

01 - Ouverture 'Le Cortège' (instr.) [1:05]
02 - Tout le jour, sa voie tint [3:23]
03 - Ami, ne vous affectez [6:07]
04 - Le cortège [2:29]
05 - A Slow Air (instr.) [2:03]

LA JEUNE FILLE ET SON MORT
06 - Lasse! Malaureuse [3:33]
07 - Ha! Perceval, malheureux [2:01]

L'OIE BLESSÉE
08 - Trois gouttes de sang [3:36]
09 - Bride one breere [5:11]
10 - Young man's lamentation (solo guitar) instr. [1:20]
11 - Young man's lamentation (instr.) [1:40]


PERCEVAL À LA COURT D'ARTHUR
12 - Grande joie fit le Roi [1:02]
13 - Réjouissance 1-2 (instr.) [1:40]
14 - La malédiction [4:26]
15 - 5 ans passèrent (instr.) [2:23]
16 - A Scoth measure (instr.) [2:49]


LE VENDREDI SAINT CHEZ L'ERMITE
17 - De Pascha [2:19]
18 - Doux Sire, bien a 5 ans [2:58]
19 - Pascha Nostrum [1:21]

LA SERMENT DE PERCEVAL
20 - Chaconne 'Le serment' [5:45]


LA NEF
Sylvain Bergeron

Daniel Taylor, PERCEVAL, countertenor
Claire Gignac, THE HIDEOUS DAMSEL, contralto, recorders, flute
Viviane LeBlanc, soprano
Catherine Herrmann, A MAIDEN, soprano
Rafik Samman, THE FISHER KING, THE HERMIT, baritone, percussions
Hughes Saint-Gelais, A YOUNG MAN, tenor
Betsy MacMillan, bass viol, treble viol
Robin Grenon, harp
Éric Mercier, shawm, penny whistle
Sylvain Bergeron, early guitar, psaltery

rapidshare links

LOG
Exact Audio Copy V0.99 prebeta 4 from 23. January 2008

EAC extraction logfile from 26. February 2010, 23:55

Sylvain Bergeron, La Nef / Perceval - La quête du Graal - vol ll

Used drive : Optiarc DVD RW AD-7530B Adapter: 0 ID: 0

Read mode : Secure
Utilize accurate stream : Yes
Defeat audio cache : Yes
Make use of C2 pointers : No

Read offset correction : 6
Overread into Lead-In and Lead-Out : No
Fill up missing offset samples with silence : Yes
Delete leading and trailing silent blocks : No
Null samples used in CRC calculations : Yes
Used interface : Installed external ASPI interface



TOC of the extracted CD

Track | Start | Length | Start sector | End sector
---------------------------------------------------------
1 | 0:00.00 | 1:05.02 | 0 | 4876
2 | 1:05.02 | 3:22.65 | 4877 | 20091
3 | 4:27.67 | 6:06.68 | 20092 | 47609
4 | 10:34.60 | 2:28.57 | 47610 | 58766
5 | 13:03.42 | 2:02.68 | 58767 | 67984
6 | 15:06.35 | 3:33.12 | 67985 | 83971
7 | 18:39.47 | 2:01.18 | 83972 | 93064
8 | 20:40.65 | 3:36.15 | 93065 | 109279
9 | 24:17.05 | 5:10.65 | 109280 | 132594
10 | 29:27.70 | 1:20.17 | 132595 | 138611
11 | 30:48.12 | 1:40.03 | 138612 | 146114
12 | 32:28.15 | 1:02.12 | 146115 | 150776
13 | 33:30.27 | 1:40.10 | 150777 | 158286
14 | 35:10.37 | 4:26.30 | 158287 | 178266
15 | 39:36.67 | 2:22.63 | 178267 | 188979
16 | 41:59.55 | 2:48.52 | 188980 | 201631
17 | 44:48.32 | 2:19.15 | 201632 | 212071
18 | 47:07.47 | 2:58.25 | 212072 | 225446
19 | 50:05.72 | 1:21.23 | 225447 | 231544
20 | 51:27.20 | 5:45.25 | 231545 | 257444


Range status and errors

Selected range

Filename C:\Sylvain Bergeron, La Nef - Perceval - La quête du Graal - vol ll.wav

Peak level 99.8 %
Range quality 99.9 %
Copy CRC E08D73BB
Copy OK

No errors occurred


AccurateRip summary

Track 1 accurately ripped (confidence 1) [A45F60A7]
Track 2 accurately ripped (confidence 1) [AABB1FA3]
Track 3 accurately ripped (confidence 1) [2701FA88]
Track 4 accurately ripped (confidence 1) [1A3CE422]
Track 5 accurately ripped (confidence 1) [1E76745D]
Track 6 accurately ripped (confidence 1) [712E1A99]
Track 7 accurately ripped (confidence 1) [D39BAFFF]
Track 8 accurately ripped (confidence 1) [8096F9F8]
Track 9 accurately ripped (confidence 1) [B479AB71]
Track 10 accurately ripped (confidence 1) [7F8E3F5E]
Track 11 accurately ripped (confidence 1) [6843EA45]
Track 12 accurately ripped (confidence 1) [AE104F71]
Track 13 accurately ripped (confidence 1) [67D7263E]
Track 14 accurately ripped (confidence 1) [8F0277C2]
Track 15 accurately ripped (confidence 1) [4655CC7B]
Track 16 accurately ripped (confidence 1) [CA947059]
Track 17 accurately ripped (confidence 1) [1FB59CF8]
Track 18 accurately ripped (confidence 1) [07B8F60B]
Track 19 accurately ripped (confidence 1) [0D9918A3]
Track 20 accurately ripped (confidence 1) [A2821BD7]

All tracks accurately ripped

End of status report

ADVERTISING » Download fast « ADVERTISING
Posted By: acaciatree Date: 01 Mar 2022 15:37:27
thank you very much for this. very appreciated.
Posted By: TheHighAldwyn Date: 01 Mar 2022 21:11:28
Thank you for the share Yerbas.
Recent searches:
DONATE AVAXHOME:

Donate please!