Loading...
Done
Home > Music
Bob Marley & The Wailers - Burnin (Deluxe Edition) 2004
Posted By : Xmaster | Date : 25 Feb 2022 00:35:21 | Comments : 4

Bob Marley & The Wailers - Burnin (Deluxe Edition) 2004
2CD | FLAC-TRACKS+CUE +LOG +COVER | 2004 | 875,26 МB
Genre: Reggae | Label: Island


Tracklist:

CD1 Burnin' Remastered + Unreleased Tracks

01. Get Up, Stand Up
02. Hallelujah Time
03. I Shot The Sheriff
04. Burnin' And Lootin'
05. Put It On
06. Small Axe
07. Pass It On
08. Duppy Conqueror
09. One Foundation
10. Rasta Man Chant
11. Reincarnated Souls (Bonus Track)
12. No Sympathy (Bonus Track)
13. The Oppressed Song (Bonus Track)
14. Get Up, Stand Up (Unreleased Alternate Take)
15. Get Up, Stand Up (Unreleased Single Version)

CD2 Live At Leeds, November 23, 2021

01. Duppy Conqueror
02. Slave Driver
03. Burnin' And Lootin'
04. Can't Blame The Youth
05. Stop That Train
06. Midnight Ravers
07. No More Trouble
08. Kinky Reggae
09. Get Up, Stand Up
10. Stir It Up
11. Put It On
12. Lively Up Yourself

From amazon.com
This is the last album by the trio who started out as the Wailers. After this album tensions amoung the original Wailers (Bob Marley, Peter Tosh, Bunny Wailer)proved to be too much and they broke up. But this album released in 1973 was the Wailers greatest work. the trio prefectly compliment each other on the classic I Shot the Sheriff and the fine Get Up, Stand Up. On Burnin' unlike on Catch A Fire, each Wailer gets a few of their own songs performed even though Bob Marley still takes many of the lead vocals. Burnin' is mainly some of the band's older songs re-worked with some new tunes that are quite catchy. All the songs have excellent harmonies and phat instrumentation, and to no one's suprise, the Barrett brother lay down some great grooves. This album presents the Wailers at the peak of their powers. the second disc is unbelievable. The leeds show has been in circulation amoungst tape traders but not with the quality here. The leeds show is one of my favorite wailers shows, and is one of the last concerts marley played with tosh. It is well worth the money for this, and I would recommend this as a great introduction to the wailers sound, these 2 discs surpass legened by far.

EAC LOG CD1
EAC extraction logfile from 15. June 2006, 22:13 for CD
Bob Marley & The Wailers / Burnin' (Deluxe Edition) Remastered (Disc 1)

Used drive : PLEXTOR DVDR PX-716A Adapter: 1 ID: 0
Read mode : Secure with NO C2, accurate stream, disable cache
Read offset correction : 30
Overread into Lead-In and Lead-Out : No

Used output format : C:\Program Files\FLAC\flac.exe (User Defined Encoder)
128 kBit/s
Additional command line options : -V -8 -T "artist=%a" -T "title=%t" -T "album=%g" -T "date=%y" -T "tracknumber=%n" -T "genre=%m" %s

Other options :
Fill up missing offset samples with silence : Yes
Delete leading and trailing silent blocks : No
Native Win32 interface for Win NT & 2000

Track 1
Filename D:\Desktop\Files\Audio\rips\EAC0.95b4_FLAC1.1.2\Bob Marley & The Wailers\Bob Marley & The Wailers - Burnin' (Deluxe Edition) Remastered (Disc 1)\Bob Marley & The Wailers - 01 - Get Up, Stand Up.wav

Pre-gap length 0:00:02.00

Peak level 99.3 %
Track quality 100.0 %
Test CRC 3B3D3387
Copy CRC 3B3D3387
Copy OK

Track 2
Filename D:\Desktop\Files\Audio\rips\EAC0.95b4_FLAC1.1.2\Bob Marley & The Wailers\Bob Marley & The Wailers - Burnin' (Deluxe Edition) Remastered (Disc 1)\Bob Marley & The Wailers - 02 - Hallelujah Time.wav

Pre-gap length 0:00:02.06

Peak level 99.3 %
Track quality 100.0 %
Test CRC E779C7E0
Copy CRC E779C7E0
Copy OK

Track 3
Filename D:\Desktop\Files\Audio\rips\EAC0.95b4_FLAC1.1.2\Bob Marley & The Wailers\Bob Marley & The Wailers - Burnin' (Deluxe Edition) Remastered (Disc 1)\Bob Marley & The Wailers - 03 - I Shot The Sheriff.wav

Pre-gap length 0:00:02.12

Peak level 99.3 %
Track quality 99.9 %
Test CRC 38B62059
Copy CRC 38B62059
Copy OK

Track 4
Filename D:\Desktop\Files\Audio\rips\EAC0.95b4_FLAC1.1.2\Bob Marley & The Wailers\Bob Marley & The Wailers - Burnin' (Deluxe Edition) Remastered (Disc 1)\Bob Marley & The Wailers - 04 - Burnin' And Lootin'.wav

Pre-gap length 0:00:01.13

Peak level 99.3 %
Track quality 100.0 %
Test CRC 8E086292
Copy CRC 8E086292
Copy OK

Track 5
Filename D:\Desktop\Files\Audio\rips\EAC0.95b4_FLAC1.1.2\Bob Marley & The Wailers\Bob Marley & The Wailers - Burnin' (Deluxe Edition) Remastered (Disc 1)\Bob Marley & The Wailers - 05 - Put It On.wav

Pre-gap length 0:00:02.13

Peak level 100.0 %
Track quality 100.0 %
Test CRC E5415EDB
Copy CRC E5415EDB
Copy OK

Track 6
Filename D:\Desktop\Files\Audio\rips\EAC0.95b4_FLAC1.1.2\Bob Marley & The Wailers\Bob Marley & The Wailers - Burnin' (Deluxe Edition) Remastered (Disc 1)\Bob Marley & The Wailers - 06 - Small Axe.wav

Pre-gap length 0:00:02.23

Peak level 99.3 %
Track quality 100.0 %
Test CRC 5BA20A0C
Copy CRC 5BA20A0C
Copy OK

Track 7
Filename D:\Desktop\Files\Audio\rips\EAC0.95b4_FLAC1.1.2\Bob Marley & The Wailers\Bob Marley & The Wailers - Burnin' (Deluxe Edition) Remastered (Disc 1)\Bob Marley & The Wailers - 07 - Pass It On.wav

Pre-gap length 0:00:02.00

Peak level 100.0 %
Track quality 100.0 %
Test CRC 9ACBCE4E
Copy CRC 9ACBCE4E
Copy OK

Track 8
Filename D:\Desktop\Files\Audio\rips\EAC0.95b4_FLAC1.1.2\Bob Marley & The Wailers\Bob Marley & The Wailers - Burnin' (Deluxe Edition) Remastered (Disc 1)\Bob Marley & The Wailers - 08 - Duppy Conqueror.wav

Pre-gap length 0:00:01.05

Peak level 99.3 %
Track quality 100.0 %
Test CRC 439F7AAE
Copy CRC 439F7AAE
Copy OK

Track 9
Filename D:\Desktop\Files\Audio\rips\EAC0.95b4_FLAC1.1.2\Bob Marley & The Wailers\Bob Marley & The Wailers - Burnin' (Deluxe Edition) Remastered (Disc 1)\Bob Marley & The Wailers - 09 - One Foundation.wav

Pre-gap length 0:00:02.03

Peak level 99.3 %
Track quality 100.0 %
Test CRC 55F9815D
Copy CRC 55F9815D
Copy OK

Track 10
Filename D:\Desktop\Files\Audio\rips\EAC0.95b4_FLAC1.1.2\Bob Marley & The Wailers\Bob Marley & The Wailers - Burnin' (Deluxe Edition) Remastered (Disc 1)\Bob Marley & The Wailers - 10 - Rasta Man Chant.wav

Pre-gap length 0:00:01.29

Peak level 99.3 %
Track quality 100.0 %
Test CRC C0949C11
Copy CRC C0949C11
Copy OK

Track 11
Filename D:\Desktop\Files\Audio\rips\EAC0.95b4_FLAC1.1.2\Bob Marley & The Wailers\Bob Marley & The Wailers - Burnin' (Deluxe Edition) Remastered (Disc 1)\Bob Marley & The Wailers - 11 - Reincarnated Souls.wav

Pre-gap length 0:00:02.45

Peak level 90.4 %
Track quality 100.0 %
Test CRC DC660C72
Copy CRC DC660C72
Copy OK

Track 12
Filename D:\Desktop\Files\Audio\rips\EAC0.95b4_FLAC1.1.2\Bob Marley & The Wailers\Bob Marley & The Wailers - Burnin' (Deluxe Edition) Remastered (Disc 1)\Bob Marley & The Wailers - 12 - No Sympathy.wav

Pre-gap length 0:00:01.39

Peak level 99.3 %
Track quality 100.0 %
Test CRC F4EF8EBF
Copy CRC F4EF8EBF
Copy OK

Track 13
Filename D:\Desktop\Files\Audio\rips\EAC0.95b4_FLAC1.1.2\Bob Marley & The Wailers\Bob Marley & The Wailers - Burnin' (Deluxe Edition) Remastered (Disc 1)\Bob Marley & The Wailers - 13 - The Oppressed Song.wav

Pre-gap length 0:00:01.39

Peak level 91.4 %
Track quality 99.9 %
Test CRC CE3E6D7B
Copy CRC CE3E6D7B
Copy OK

Track 14
Filename D:\Desktop\Files\Audio\rips\EAC0.95b4_FLAC1.1.2\Bob Marley & The Wailers\Bob Marley & The Wailers - Burnin' (Deluxe Edition) Remastered (Disc 1)\Bob Marley & The Wailers - 14 - Get Up, Stand Up (Unreleased Alternate Take).wav

Pre-gap length 0:00:02.11

Peak level 97.0 %
Track quality 100.0 %
Test CRC C5C5D3AD
Copy CRC C5C5D3AD
Copy OK

Track 15
Filename D:\Desktop\Files\Audio\rips\EAC0.95b4_FLAC1.1.2\Bob Marley & The Wailers\Bob Marley & The Wailers - Burnin' (Deluxe Edition) Remastered (Disc 1)\Bob Marley & The Wailers - 15 - Get Up, Stand Up (Unreleased Single Version).wav

Pre-gap length 0:00:01.37

Peak level 100.0 %
Track quality 100.0 %
Test CRC 496471AE
Copy CRC 496471AE
Copy OK

No errors occured

End of status report


EAC LOG CD2
EAC extraction logfile from 15. June 2006, 21:45 for CD
Bob Marley & The Wailers / Burnin' (Deluxe Edition) Live At Leeds (Disc 2)

Used drive : PLEXTOR DVDR PX-716A Adapter: 1 ID: 0
Read mode : Secure with NO C2, accurate stream, disable cache
Read offset correction : 30
Overread into Lead-In and Lead-Out : No

Used output format : C:\Program Files\FLAC\flac.exe (User Defined Encoder)
128 kBit/s
Additional command line options : -V -8 -T "artist=%a" -T "title=%t" -T "album=%g" -T "date=%y" -T "tracknumber=%n" -T "genre=%m" %s

Other options :
Fill up missing offset samples with silence : Yes
Delete leading and trailing silent blocks : No
Native Win32 interface for Win NT & 2000

Track 1
Filename D:\Desktop\Files\Audio\rips\EAC0.95b4_FLAC1.1.2\Bob Marley & The Wailers\Bob Marley & The Wailers - Burnin' (Deluxe Edition) Live At Leeds (Disc 2)\Bob Marley & The Wailers - 01 - Duppy Conqueror.wav

Pre-gap length 0:00:02.00

Peak level 100.0 %
Track quality 100.0 %
Test CRC 024E4979
Copy CRC 024E4979
Copy OK

Track 2
Filename D:\Desktop\Files\Audio\rips\EAC0.95b4_FLAC1.1.2\Bob Marley & The Wailers\Bob Marley & The Wailers - Burnin' (Deluxe Edition) Live At Leeds (Disc 2)\Bob Marley & The Wailers - 02 - Slave Driver.wav

Peak level 100.0 %
Track quality 100.0 %
Test CRC 676CFD8E
Copy CRC 676CFD8E
Copy OK

Track 3
Filename D:\Desktop\Files\Audio\rips\EAC0.95b4_FLAC1.1.2\Bob Marley & The Wailers\Bob Marley & The Wailers - Burnin' (Deluxe Edition) Live At Leeds (Disc 2)\Bob Marley & The Wailers - 03 - BurninґAnd Lootinґ.wav

Peak level 100.0 %
Track quality 99.9 %
Test CRC 958F728C
Copy CRC 958F728C
Copy OK

Track 4
Filename D:\Desktop\Files\Audio\rips\EAC0.95b4_FLAC1.1.2\Bob Marley & The Wailers\Bob Marley & The Wailers - Burnin' (Deluxe Edition) Live At Leeds (Disc 2)\Bob Marley & The Wailers - 04 - Canґt Blame The Youth.wav

Peak level 100.0 %
Track quality 100.0 %
Test CRC 02506EAA
Copy CRC 02506EAA
Copy OK

Track 5
Filename D:\Desktop\Files\Audio\rips\EAC0.95b4_FLAC1.1.2\Bob Marley & The Wailers\Bob Marley & The Wailers - Burnin' (Deluxe Edition) Live At Leeds (Disc 2)\Bob Marley & The Wailers - 05 - Stop That Train.wav

Peak level 100.0 %
Track quality 100.0 %
Test CRC 8D9F83B7
Copy CRC 8D9F83B7
Copy OK

Track 6
Filename D:\Desktop\Files\Audio\rips\EAC0.95b4_FLAC1.1.2\Bob Marley & The Wailers\Bob Marley & The Wailers - Burnin' (Deluxe Edition) Live At Leeds (Disc 2)\Bob Marley & The Wailers - 06 - Midnight Ravers.wav

Peak level 100.0 %
Track quality 100.0 %
Test CRC A9AF975B
Copy CRC A9AF975B
Copy OK

Track 7
Filename D:\Desktop\Files\Audio\rips\EAC0.95b4_FLAC1.1.2\Bob Marley & The Wailers\Bob Marley & The Wailers - Burnin' (Deluxe Edition) Live At Leeds (Disc 2)\Bob Marley & The Wailers - 07 - No More Trouble.wav

Peak level 100.0 %
Track quality 100.0 %
Test CRC E51425C4
Copy CRC E51425C4
Copy OK

Track 8
Filename D:\Desktop\Files\Audio\rips\EAC0.95b4_FLAC1.1.2\Bob Marley & The Wailers\Bob Marley & The Wailers - Burnin' (Deluxe Edition) Live At Leeds (Disc 2)\Bob Marley & The Wailers - 08 - Kinky Reggae.wav

Peak level 100.0 %
Track quality 100.0 %
Test CRC 3C6E6148
Copy CRC 3C6E6148
Copy OK

Track 9
Filename D:\Desktop\Files\Audio\rips\EAC0.95b4_FLAC1.1.2\Bob Marley & The Wailers\Bob Marley & The Wailers - Burnin' (Deluxe Edition) Live At Leeds (Disc 2)\Bob Marley & The Wailers - 09 - Get Up, Stand Up.wav

Peak level 100.0 %
Track quality 100.0 %
Test CRC B980954B
Copy CRC B980954B
Copy OK

Track 10
Filename D:\Desktop\Files\Audio\rips\EAC0.95b4_FLAC1.1.2\Bob Marley & The Wailers\Bob Marley & The Wailers - Burnin' (Deluxe Edition) Live At Leeds (Disc 2)\Bob Marley & The Wailers - 10 - Stir It Up.wav

Peak level 100.0 %
Track quality 100.0 %
Test CRC 927F1DF7
Copy CRC 927F1DF7
Copy OK

Track 11
Filename D:\Desktop\Files\Audio\rips\EAC0.95b4_FLAC1.1.2\Bob Marley & The Wailers\Bob Marley & The Wailers - Burnin' (Deluxe Edition) Live At Leeds (Disc 2)\Bob Marley & The Wailers - 11 - Put It On.wav

Peak level 100.0 %
Track quality 100.0 %
Test CRC 1CDADBD5
Copy CRC 1CDADBD5
Copy OK

Track 12
Filename D:\Desktop\Files\Audio\rips\EAC0.95b4_FLAC1.1.2\Bob Marley & The Wailers\Bob Marley & The Wailers - Burnin' (Deluxe Edition) Live At Leeds (Disc 2)\Bob Marley & The Wailers - 12 - Lively Up Yourself.wav

Peak level 100.0 %
Track quality 100.0 %
Test CRC 62090A7C
Copy CRC 62090A7C
Copy OK

No errors occured

End of status report


All thanks for original release going to -MaRa-

ADVERTISING » Download fast « ADVERTISING
Posted By: Lusitano Date: 25 Feb 2022 01:29:44
Thanks a lot !! The live seems pretty cool !!
by the way, no pass was needed ;)
Posted By: jennwilson Date: 25 Feb 2022 20:29:10
When you say "covers included," does that include the booklet, too?

Thanks
Posted By: calisan Date: 25 Feb 2022 23:51:30
Another doubt, when you say "+COVER" include complete artwork too?
and great job anyway! Thanks
Posted By: Rock-A-Billy Date: 26 Feb 2022 22:00:00
THANK YOU VERY MUCH!

COVERS would be great (!?)

Rock-A-Billy
Recent searches:
DONATE AVAXHOME:

Donate please!