Loading...
Done
Home > Music > Blues
Posted By : pcharlie46 | Date : 18 Oct 2021 14:23:00 | Comments : 0 |

Martin Scorsese presents The Blues: Muddy Waters (2003)
EAC Rip | Flac + Cue + Log | Cover + Booklet 16 pages scans included | 207 Mb
Blues | Label: Universal Music (B0000482-02), released 2003

This is a very well chosen set for a single disc Muddy comp. Kudos to the compilers for including a couple pre-Chess cuts as well as a track from his highly underrated recordings on the Blue Sky label. The thought of a new blues fan picking up this disc and discovering Muddy for the first time quite frankly gives me goosebumps.
(from Customer Review, Amazon.com)

Tracklist:

01. Country Blues, Number One (3:26)
02. Burying Ground Blues (2:33)
03. I Can’t Be Satisfied (2;43)
04. Rollin’ & Tumblin’, Part One (3:00)
05. Rollin’ Stone (3:07)
06. Louisiana Blues (2:55)
07. long Distance Call (2:41)
08. (I’m your) Hoochie Choocie Man (Willie Dixon) (2:51)
09. I Just Want To Make Love To You (willie Dixon) (2:51)
10. Mannish Boy (M. Morganfield, Met London, Elias McDaniel) (2:57)
11. trouble No More (2:42)
12. Rock Me (3:12)
13. Got My Mojo Working (Preston Foster) (2:52)
14. You Shock Me (Willie Dixon, J.B. Lenoir) (2:45)
15. You Can’t Loose What You Ain’t Never Had (2:57)
16. The Blues Had A Baby And They Named It Rock And Roll (3:35)

Total Time 00:47:06

EAC LOG


Exact Audio Copy V0.99 prebeta 5 from 4. May 2009

EAC extraction logfile from 16. October 2010, 21:23

Muddy Waters / Martin Scorsese Presents The Blues

Used drive : MATSHITADVD-RAM UJ870BJ Adapter: 0 ID: 1

Read mode : Secure
Utilize accurate stream : Yes
Defeat audio cache : Yes
Make use of C2 pointers : No

Read offset correction : 102
Overread into Lead-In and Lead-Out : No
Fill up missing offset samples with silence : Yes
Delete leading and trailing silent blocks : No
Null samples used in CRC calculations : No
Normalize to : 100 %
Used interface : Native Win32 interface for Win NT & 2000

Used output format : User Defined Encoder
Selected bitrate : 896 kBit/s
Quality : High
Add ID3 tag : Yes
Command line compressor : C:\Programmi\Exact Audio Copy\Flac\flac.exe
Additional command line options : -6 -V -T "ARTIST=%a" -T "TITLE=%t" -T "ALBUM=%g" -T "DATE=%y" -T "TRACKNUMBER=%n" -T "GENRE=%m" -T "COMMENT=%e" %s -o %d

TOC of the extracted CD

Track | Start | Length | Start sector | End sector
---------------------------------------------------------
1 | 0:00.00 | 3:26.05 | 0 | 15454
2 | 3:26.05 | 2:33.15 | 15455 | 26944
3 | 5:59.20 | 2:42.60 | 26945 | 39154
4 | 8:42.05 | 2:59.40 | 39155 | 52619
5 | 11:41.45 | 3:07.22 | 52620 | 66666
6 | 14:48.67 | 2:54.70 | 66667 | 79786
7 | 17:43.62 | 2:40.55 | 79787 | 91841
8 | 20:24.42 | 2:51.25 | 91842 | 104691
9 | 23:15.67 | 2:51.20 | 104692 | 117536
10 | 26:07.12 | 2:57.05 | 117537 | 130816
11 | 29:04.17 | 2:41.55 | 130817 | 142946
12 | 31:45.72 | 3:12.00 | 142947 | 157346
13 | 34:57.72 | 2:51.73 | 157347 | 170244
14 | 37:49.70 | 2:44.45 | 170245 | 182589
15 | 40:34.40 | 2:56.52 | 182590 | 195841
16 | 43:31.17 | 3:35.03 | 195842 | 211969

Range status and errors

Selected range

Filename C:\Lossless\Muddy Waters - Martin Scorsese (2003) (flac)\Muddy Waters - Martin Scorsese Presents The Blues.wav

Peak level 97.7 %
Range quality 100.0 %
Copy CRC 9DDD91EF
Copy OK

No errors occurred

AccurateRip summary

Track 1 accurately ripped (confidence 14) [D75F6B3B]
Track 2 accurately ripped (confidence 14) [B98D7C27]
Track 3 accurately ripped (confidence 15) [A34E87A5]
Track 4 accurately ripped (confidence 15) [6F7E2879]
Track 5 accurately ripped (confidence 15) [546BDA5A]
Track 6 accurately ripped (confidence 15) [8A5BABFB]
Track 7 accurately ripped (confidence 15) [8ACA4776]
Track 8 accurately ripped (confidence 15) [FDA2FD47]
Track 9 accurately ripped (confidence 15) [059CD886]
Track 10 accurately ripped (confidence 15) [CF0BB309]
Track 11 accurately ripped (confidence 15) [43553301]
Track 12 accurately ripped (confidence 15) [FE9FC9E5]
Track 13 accurately ripped (confidence 15) [9056B275]
Track 14 accurately ripped (confidence 15) [EB1C0EC8]
Track 15 accurately ripped (confidence 15) [D997BAB7]
Track 16 accurately ripped (confidence 14) [594BB6B7]

All tracks accurately ripped

End of status report




FileServe

Muddy 1Muddy 2

FileSonic

Muddy 1Muddy 2


Links interchangeable - No pass – No mirror please

Enjoy and take a look to My Blog for more good music!

ADVERTISING » High Speed Download « ADVERTISING




No comments for the news
Recent searches: