Loading...
Done
Home > Music > Blues
Posted By : countryfreak | Date : 18 Oct 2021 06:30:48 | Comments : 3 |

Sam Taylor - Desert Soul (1995/2003)
EAC Rip | FLAC (Image) + CUE + LOG | 344 MB | + Covers
Genre: Blues/New York Blues | Label: ThrillVille/Trope | Catalog Number: 395002 | Release Date: 1995 | RAR 5% Rec. | RS.com + HF.com

Desert soul is a collection of Sam Taylor's music that he has written,recorded and produced since moving to his desert home in Tucson,Arizona in 1988.
It is a testament to the man ,his music,and the extraordinry talent of the musicians that have come to join him as he does what he does,and creates an experience
that is pure Sam "Blues Man" Talor....vintage "desert soul" music from the heart and soul of a true rhythm & blues disciple.


-----------------
Tracklist
-----------------

1. L.A. quake 4:36
2. Voice of the blues 3:41
3. Ain't nothin' in the streets 4:46
4. Best friends 5:59
5. Sexy child 4:43
6. It ain't me 3:02
7. You got the nerve 4:25
8. Mother blues 2:13
9. Mother of the year 4:54
10. Ain't no love 7:04
11. Call the police 4:02
12. Good stuff 3:58


Flac Download RS.com

Part 1|Part 2|Part 3|Part 4

Flac Download HF.com

Part 1|Part 2|Part 3|Part 4

Flac Download FS.com

Part 1|Part 2|Part 3|Part 4

The files are interchangeable!

***** Pass: avaxhome *****

EAC LOG
Exact Audio Copy V0.99 prebeta 5 from 4. May 2009

EAC extraction logfile from 6. October 2010, 8:38

Sam Taylor / Desert Soul

Used drive : ASUS DRW-24B1LT Adapter: 3 ID: 0

Read mode : Secure
Utilize accurate stream : Yes
Defeat audio cache : Yes
Make use of C2 pointers : No

Read offset correction : 6
Overread into Lead-In and Lead-Out : No
Fill up missing offset samples with silence : Yes
Delete leading and trailing silent blocks : No
Null samples used in CRC calculations : Yes
Used interface : Native Win32 interface for Win NT & 2000

Used output format : User Defined Encoder
Selected bitrate : 1024 kBit/s
Quality : High
Add ID3 tag : No
Command line compressor : C:\Program Files\Exact Audio Copy\FLAC\FLAC.EXE
Additional command line options : -6 -V -T "ARTIST=%a" -T "TITLE=%t" -T "ALBUM=%g" -T "DATE=%y" -T "TRACKNUMBER=%n" -T "GENRE=%m" -T "COMMENT=%e" %s -o %d


TOC of the extracted CD

Track | Start | Length | Start sector | End sector
---------------------------------------------------------
1 | 0:00.00 | 4:36.15 | 0 | 20714
2 | 4:36.15 | 3:41.05 | 20715 | 37294
3 | 8:17.20 | 4:46.33 | 37295 | 58777
4 | 13:03.53 | 5:59.45 | 58778 | 85747
5 | 19:03.23 | 4:43.69 | 85748 | 107041
6 | 23:47.17 | 3:02.37 | 107042 | 120728
7 | 26:49.54 | 4:25.38 | 120729 | 140641
8 | 31:15.17 | 2:13.04 | 140642 | 150620
9 | 33:28.21 | 4:54.29 | 150621 | 172699
10 | 38:22.50 | 7:04.26 | 172700 | 204525
11 | 45:27.01 | 4:02.61 | 204526 | 222736
12 | 49:29.62 | 3:57.37 | 222737 | 240548


Range status and errors

Selected range

Filename D:\MUSIK\Sam Taylor - Desert Soul [FLA] (2003)\Sam Taylor - Desert Soul.wav

Peak level 100.0 %
Range quality 100.0 %
Copy CRC E267D2B0
Copy OK

No errors occurred


AccurateRip summary

Track 1 cannot be verified as accurate (confidence 1) [AE46D3FF], AccurateRip returned [D7E9C953]
Track 2 cannot be verified as accurate (confidence 1) [D82380FE], AccurateRip returned [B43CDF26]
Track 3 cannot be verified as accurate (confidence 1) [8D28D1B8], AccurateRip returned [20538D18]
Track 4 cannot be verified as accurate (confidence 1) [00C17645], AccurateRip returned [2038B5A7]
Track 5 cannot be verified as accurate (confidence 1) [2D62E807], AccurateRip returned [A9D4C9EB]
Track 6 cannot be verified as accurate (confidence 1) [F91185E7], AccurateRip returned [DBC58569]
Track 7 cannot be verified as accurate (confidence 1) [066AB103], AccurateRip returned [45FD5637]
Track 8 cannot be verified as accurate (confidence 1) [D09406B5], AccurateRip returned [6EC0D249]
Track 9 cannot be verified as accurate (confidence 1) [BD2BDD48], AccurateRip returned [2659CC6C]
Track 10 cannot be verified as accurate (confidence 1) [49EE714F], AccurateRip returned [DED47993]
Track 11 cannot be verified as accurate (confidence 1) [8992D692], AccurateRip returned [1C70CC52]
Track 12 cannot be verified as accurate (confidence 1) [C76121C3], AccurateRip returned [EF7B6DF9]

No tracks could be verified as accurate
You may have a different pressing from the one(s) in the database

End of status report


In case you encounter dead links in any of my posts, please send me a private message !!!!

NO mirrors and/or direct links in your comments, please !!!!

****Visit My Blog****


Sam Taylor - Keep the Blues Alive (1999/2003)
ADVERTISING » High Speed Download « ADVERTISING




Posted By: wersollsschonsein Date: 18 Oct 2021 07:38:43
Cheers from Ireland.
Posted By: Balumax Date: 18 Oct 2021 11:05:16
Thanks a lot, especially for the RS links! :)
Posted By: loomer Date: 19 Oct 2021 14:18:27
Thanks a lot!
Recent searches: