Loading...
Done
Home > Music > Avant-Garde
Posted By : CioCio | Date : 28 Feb 2022 07:32:59 | Comments : 3 |
Christian Weber - 3 Suits & A Violin

Christian Weber - 3 Suits & A Violin
Free Improv/Avant-Garde | EAC (FLAC+CUE+LOG) | 237 MB (WinRAR - 3% Rec.) | 2006 | Complete Scans
Recorded at DRS Radio Studio 2 on September 13th & 14th, 2002 by Andy Neresheimer

What Christian Weber and Co. have achieved on 3 Suits & A Violin is a music that eschews formulaic approaches and instead temper their group sound in dense laminations of texture and sonic residue. The result is an arresting music which combines elements of group-improvised minimalism, electro-acoustic improvisation and avant-garde chamber music into a texturally rich exploration of detailed noise texture... In Christian Weber's work noise has become closely connected to the repertoire, that his music sits very comfortably within this, as if to question if, then, noise has such a natural and reflexive occurrence on the instrumental practice, so then, he constructs pieces which are bathed in these static residues and phantom details.
- Dean M. Roberts, liner notes

Tracklist

1) Pony Music 7:50
2) Sun Perspectives 6:28
3) Buzz Aldrin 5:50
4) Camping Light Night 6:17
5) Frogmouth 15:56
6) Lone Star 6:51


Christian Weber double bass
Hans Koch bass clarinet, saxophones, electronics
Michael Moser cello
Martin Siewert guitar, lap steel, electronics
Christian Wolfarth drums


EAC LOG
Exact Audio Copy V0.99 prebeta 5 from 4. May 2009

EAC extraction logfile from 26. February 2010, 0:44

weber, christian / 3 suits & a violin

Used drive : TSSTcorpCDDVDW SH-S203B Adapter: 2 ID: 0

Read mode : Secure
Utilize accurate stream : Yes
Defeat audio cache : No
Make use of C2 pointers : Yes

Read offset correction : 6
Overread into Lead-In and Lead-Out : No
Fill up missing offset samples with silence : Yes
Delete leading and trailing silent blocks : No
Null samples used in CRC calculations : Yes
Used interface : Native Win32 interface for Win NT & 2000
Gap handling : Appended to previous track

Used output format : User Defined Encoder
Selected bitrate : 128 kBit/s
Quality : High
Add ID3 tag : No
Command line compressor : C:\Program Files\Exact Audio Copy\wapet.exe
Additional command line options : %d -t "Artist=%a" -t "Title=%t" -t "Album=%g" -t "Year=%y" -t "Track=%n" -t "Genre=%m" "C:\Program Files\TAK\takc.exe" -e -p4m %s %d


TOC of the extracted CD

Track | Start | Length | Start sector | End sector
---------------------------------------------------------
1 | 0:00.01 | 7:50.65 | 1 | 35315
2 | 7:50.66 | 6:28.00 | 35316 | 64415
3 | 14:18.66 | 5:50.02 | 64416 | 90667
4 | 20:08.68 | 6:17.50 | 90668 | 118992
5 | 26:26.43 | 15:56.04 | 118993 | 190696
6 | 42:22.47 | 6:51.67 | 190697 | 221588


Track 1

Filename weber, christian\(2006) 3 suits & a violin\01 - pony music.wav

Pre-gap length 0:00:02.01

Peak level 92.5 %
Track quality 100.0 %
Test CRC 6F3515B8
Copy CRC 6F3515B8
Accurately ripped (confidence 1) [CE01B5FB]
Copy OK

Track 2

Filename weber, christian\(2006) 3 suits & a violin\02 - sun perspectives.wav

Peak level 82.8 %
Track quality 100.0 %
Test CRC 9173FB04
Copy CRC 9173FB04
Accurately ripped (confidence 1) [EC6B8848]
Copy OK

Track 3

Filename weber, christian\(2006) 3 suits & a violin\03 - buzz aldrin.wav

Peak level 92.0 %
Track quality 100.0 %
Test CRC 0E947582
Copy CRC 0E947582
Accurately ripped (confidence 1) [5F285167]
Copy OK

Track 4

Filename weber, christian\(2006) 3 suits & a violin\04 - camping light night.wav

Peak level 63.8 %
Track quality 100.0 %
Test CRC D9F0DAAB
Copy CRC D9F0DAAB
Accurately ripped (confidence 1) [32C903E3]
Copy OK

Track 5

Filename weber, christian\(2006) 3 suits & a violin\05 - frogmouth.wav

Peak level 93.9 %
Track quality 100.0 %
Test CRC 8A87E676
Copy CRC 8A87E676
Accurately ripped (confidence 1) [112E9C07]
Copy OK

Track 6

Filename weber, christian\(2006) 3 suits & a violin\06 - lone star.wav

Peak level 77.2 %
Track quality 100.0 %
Test CRC 61722756
Copy CRC 61722756
Accurately ripped (confidence 1) [E6610B16]
Copy OK


All tracks accurately ripped

No errors occurred

End of status report


Served thru RS
Part 1
Part 2
Part 3
Part 4
Part 5

HAT HUT Records Ltd.
ADVERTISING » High Speed Download « ADVERTISING




Posted By: basa005 Date: 28 Feb 2022 19:49:13
grazie CioCio: il festival Hat Hut continua!!!
Posted By: dangdang Date: 01 Mar 2022 02:10:55
Hatology rules! Thank you!
Posted By: denegado Date: 03 Mar 2022 00:06:48
Thank you very much!
Recent searches: