Loading...
Done
Home > Music > Avant-Garde
Stefan Wolpe - Enactments
Posted By : CioCio | Date : 26 Feb 2022 23:42:44 | Comments : 3
Stefan Wolpe - Enactments

Stefan Wolpe - Enactments
Avant-Garde | EAC (FLAC+CUE+LOG) | 217 MB (WinRAR - 3% Rec.) | 2005 | Complete Scans
performers include Josef Christof, Steffen Schleiermacher, & others

Walter Benjamin said, "I have nothing to say: only to show." For Wolpe, too, montage was the form that counteracts the illusions of progress and development. While giving a lecture on his early years, Wolpe played a recording of the first movement of 'Enactments'. He described the music as a panorama or landscape of multiple simultaneities and unforeseeable, non-directed events. The situations are highly calculated, but you cannot explain or infer what is going to happen: curves hugely expanding, curves enormously contracting, new curves, a sound, a hit, a tone, a silence.... Every event is so freshly invented, so newly born that it has almost no history in the piece itself but its own actual presence. It has its presence, its now situation, and then the now situation is joined with another, with the next now - an unfoldment of nows. "Lecture on Dada."
- Austin Clarkson, liner notes

Tracklist

1) Music and Variations for Two Pianos (1933) 18:45
performed by Josef Christof & Steffen Schleiermacher

2) The Good Spirit of a Right Cause (1942) 3:29
performed by Steffen Schleiermacher

3) Enactments for Three Pianos (1953) 5:44/8:13/3:16/3:07/12:07
  • Chant
  • In a State of Flight
  • Held In
  • Inception
  • Fugal Motions
performed by Josef Christof, Benjamin Kobler & Irmela Roelcke; conducted by James Avery


EAC LOG
Exact Audio Copy V0.99 prebeta 5 from 4. May 2009

EAC extraction logfile from 26. February 2010, 1:03

wolpe, stefan / enactments

Used drive : TSSTcorpCDDVDW SH-S203B Adapter: 2 ID: 0

Read mode : Secure
Utilize accurate stream : Yes
Defeat audio cache : No
Make use of C2 pointers : Yes

Read offset correction : 6
Overread into Lead-In and Lead-Out : No
Fill up missing offset samples with silence : Yes
Delete leading and trailing silent blocks : No
Null samples used in CRC calculations : Yes
Used interface : Native Win32 interface for Win NT & 2000
Gap handling : Appended to previous track

Used output format : User Defined Encoder
Selected bitrate : 128 kBit/s
Quality : High
Add ID3 tag : No
Command line compressor : C:\Program Files\Exact Audio Copy\wapet.exe
Additional command line options : %d -t "Artist=%a" -t "Title=%t" -t "Album=%g" -t "Year=%y" -t "Track=%n" -t "Genre=%m" "C:\Program Files\TAK\takc.exe" -e -p4m %s %d


TOC of the extracted CD

Track | Start | Length | Start sector | End sector
---------------------------------------------------------
1 | 0:00.00 | 18:52.49 | 0 | 84948
2 | 18:52.49 | 3:36.22 | 84949 | 101170
3 | 22:28.71 | 5:43.64 | 101171 | 126959
4 | 28:12.60 | 8:13.46 | 126960 | 163980
5 | 36:26.31 | 3:16.02 | 163981 | 178682
6 | 39:42.33 | 3:07.46 | 178683 | 192753
7 | 42:50.04 | 12:06.71 | 192754 | 247274


Track 1

Filename wolpe, stefan\(2005) enactments\01 - march and variations for two pianos.wav

Pre-gap length 0:00:02.00

Peak level 98.9 %
Track quality 100.0 %
Test CRC 8AB21D98
Copy CRC 8AB21D98
Track not present in AccurateRip database
Copy OK

Track 2

Filename wolpe, stefan\(2005) enactments\02 - the good spirit of a right cause.wav

Pre-gap length 0:00:07.43

Peak level 87.4 %
Track quality 100.0 %
Test CRC A0DF9A42
Copy CRC A0DF9A42
Track not present in AccurateRip database
Copy OK

Track 3

Filename wolpe, stefan\(2005) enactments\03 - enactments for three pianos- i. chant.wav

Pre-gap length 0:00:06.65

Peak level 97.1 %
Track quality 100.0 %
Test CRC 9419B048
Copy CRC 9419B048
Track not present in AccurateRip database
Copy OK

Track 4

Filename wolpe, stefan\(2005) enactments\04 - enactments for three pianos- ii. in a state of flight.wav

Peak level 96.9 %
Track quality 100.0 %
Test CRC 4B15EAB8
Copy CRC 4B15EAB8
Track not present in AccurateRip database
Copy OK

Track 5

Filename wolpe, stefan\(2005) enactments\05 - enactments for three pianos- iii. held in.wav

Peak level 96.9 %
Track quality 99.8 %
Test CRC 5CFF50D0
Copy CRC 5CFF50D0
Track not present in AccurateRip database
Copy OK

Track 6

Filename wolpe, stefan\(2005) enactments\06 - enactments for three pianos- iv. inception.wav

Peak level 74.0 %
Track quality 100.0 %
Test CRC F0E45DA5
Copy CRC F0E45DA5
Track not present in AccurateRip database
Copy OK

Track 7

Filename wolpe, stefan\(2005) enactments\07 - enactments for three pianos- v. fugal motions.wav

Peak level 97.0 %
Track quality 100.0 %
Test CRC 80BA301A
Copy CRC 80BA301A
Track not present in AccurateRip database
Copy OK


None of the tracks are present in the AccurateRip database

No errors occurred

End of status report


Served thru RS
Part 1
Part 2
Part 3
Part 4
Part 5

HAT HUT Records Ltd.
ADVERTISING » Download fast « ADVERTISING
Posted By: peachfuzz Date: 27 Feb 2022 02:51:36
"[Wolpe] described the music as a panorama or landscape of multiple simultaneities and unforeseeable, non-directed events."


In Nietzschen lexicon, this sounds all too human (only devoid of human quality). I have always been annoyed with chance encounters. So when artists or composers assert that their works are based on chance, I get this urge to ask "surely, then, you would not mind if I mutilate your work a bit since I could just as well be part of the unknown, the unforeseeable, and the non-directed chain of mutilated events." I wonder if these artists or composers even thought about us the viewers and listeners as they created their work of art.

I'll tell you what. To give credence to the entire meaning of the unforeseen, I'm going to listen to this CD in reverse. After all, shouldn't the listener be part of that process? Okay, enough with my gripe.

Cio, thanks for sharing!
Posted By: basa005 Date: 27 Feb 2022 08:16:11
thanks for this new entry of my 'hat(now)art' collection!
Posted By: paulree Date: 27 Feb 2022 09:04:29
Thanks for the music, love this american generation
Recent searches:
DONATE AVAXHOME:

Donate please!