Loading...
Done
Home > Music > Avant-Garde
Mauricio Kagel: Sankt - Bach - Passion
Posted By : denegado | Date : 27 Jan 2022 17:45:10 | Comments : 10

Mauricio Kagel 8: Sankt - Bach - Passion (Passion selon Saint Bach)
Avant-Garde | EAC RIP = APE + CUE + LOG | Cover | 2 CD / 450 MB |
Recording - 1985 / Released 1996

Kagel's conundrum is this: Saint Bach is either a unique musical phenomenon, perhaps the only instance of such divinely made (not just inspired) music, thus rendering him incomparable and even incommensurable to all other composers, or Bach's saintliness is a possibility that any composer might attain and thus "Saint Bach" is a representation of "the composer" him/herself in his/her fullest attainment. If this is the case, what other composers might Kagel also be a saint? Himself? As I said, Kagel confronts us with the most challenging epistemological conundrum any recent composer to my knowledge has laid down. And I suspect attentive listeners will be wrestling with his conundrum for generations to come, either infuriated by its seeming audacity, or humbled by its remarkable devotion. In any case, some of those infuriated and humbled listeners will return to Kagel's music with a culminating sense of marvel at its emotion and elegant design that will seem at times to be Bach's music itself wearing an astonishingly contemporary garb.
Anne Sofie Von Otter, Hans-Peter Blochwitz, Roland Hermann, Peter Oggisch, Gerd Zacher, Stuttgart Sudfunkchor, Limburger Cathedral Boys Choir, Hamburg Radio Chorus, Stuttgart Radio Symphony Orchestra, Mauricio Kage / Conductor





DISC 1

01 Vivace - O a (Chorus, Baritone) 00:07:08

02 Chorale: Fur deinem Thron tret'ich hiemit (Chorus, Mezzo-soprano, Baritone) 00:01:40

03 Moderato ma rubato, accompagnando - Johann Sebastian Bach, gehoret zu einem (Tenor) 00:03:18

04 Chorale: Ach wie fluchtig, ach wie nichtig! (Chorus) - Kehren wir zur unserm Johann Sebastian zuruck (Tenor) 00:01:01

05Chorale: Das neugeborne Kindelein (Chorus, Mezzo-soprano) 00:01:13

06 Andantino - Zwingt die Saiten in Cythara (Mezzo-soprano, Children's Chorus, Baritone) 00:01:07

07 Chorale: er lasse uns sein Antlitz leuchten (Chorus, Children's Chorus) 00:01:40

08 Andante - Johann Sebastian Bach war noch nicht zehen (Tenor, Children's Chorus) 00:03:17

09 Chorale: Bach, der uns selig macht (Chorus, Baritone) 00:02:39

10 Andantino - Nachdem sein Bruder gestorben war (Tenor, Children's Chorus) 00:03:14

11 Chorale: Den Vater dort oben (Chorus) 00:01:34

12 Larghetto, ma poco rubato - Johann, rucke deine Kahle (Mezzo-soprano, Baritone) 00:02:04

13 Andantino - Von Luneborg aus reisete er zuweilen (Tenor) 00:04:07

14 Andantino, un poco rubato - Im Jare 1703 kam er nach Weymar, und wurde daselbst Hofmusikus (Tenor) 00:03:45

15 Chorale: In allen meinem Taten (Speaker, Chorus) 00:00:54

16 Moderato - Urlaubsuberschreitung bei der Reise nach Lubeck (Tenor, Speaker, Baritone, Chorus) 00:04:47

17 Andantino - Den 17. Oktober 1707, ist der Ehrenveste Herr Johann Sebastian Bach (Mezzo-soprano, Chorus) 0:02:41

18 Andantino, un poco rubato - Muhlhausen konnte das Vergnugne nicht haben (Tenor) 00:01:55

19 Chorale: Herzliebster Johann, was hast di verbrochen (Chorus, Mezzo-soprano, Tenor, Baritone, Children's Chorus) 0:02:15

20 Andantino: Magnifice, Hoch und WohlEdle (Speaker, Chorus) 00:05:19


DISC 2


01 Chorale: Ein feste Burg ist unser Bach (Chorus) - Das 1717. Jahr grab dem bereits beruhmten Bach eien neue Gelegenheit (Tenor) 00:01:01

02 Chorale: Der du bist drei in Einigkeit (Chorus, Tenor, Speaker) 00:07:44

03 Chorale: O Mensch, bewein dein Sunde (Chorus, Mezzo-soprano, Baritone) 00:02:59

04 Colla parte: Andante - Staatsarchiv Weimar, Dokument 8995, folio 78 verso (Tenor, Baritone) 00:01:29

05 Chorale: O Traurigkeit, O Herzeleid (Chorus, Mezzo-soprano) 00:01:11

06 Allegretto - Siebzehnhundertacht, Wilhelm Friedermann (Mezzo-soprano, Speaker) 00:04:21

07 Chorale: Das walt' unser Vater Bach (Chorus, Children's Chorus) 00:01:13

08 Vivace - Die Stadt Leipzig erwahlte Bach im Jahre 1723 (Tenor, Speaker, Chorus, Baritone) 00:06:14

09 Chorale: Erhalt uns, Herr, bei deinem (Chorus, Mezzo-soprano, Tenor, Baritone) 00:00:59

10 Allegretto - Der Dienst in Leipzig ist bey weitem (Speaker) - Chorale: Du, o schones Weltgebaude (Chorus, Children's Chorus, Speaker) 00:05:06

11 Andantino - Um Jahre 1747 that er eine Reise nach Berlin (Tenor) 00:05:47

12 Chorale: Die Nacht ist kommen (Chorus, Tenor, Mezzo-soprano, Baritone, Speaker) 00:04:42

13 Chorale: O Haupt voll Blut und Wunden (Chorus, Mezzo-soprano, Baritone) 00:01:22


Otter, Anne Sofie von, mezzo-soprano
Blochwitz, Hans Peter, tenor
Hermann, Roland, baritone
Oggisch, Peter, narrator
Zacher, Gerd, organ
Stuttgart Sudfunkchor, Choir
Limburger Cathedral Boys Choir, Choir
Hamburg Radio Chorus, Choir
Stuttgart Radio Symphony Orchestra
Kagel, Mauricio, Conductor


TOTAL TIME: 99:59




EAC LOG CD1
Exact Audio Copy V0.99 prebeta 4 from 23. January 2008

Archivo Log de extracciones desde 24. Diciembre 2009, 20:32

Artista desconocido / Título desconocido

Usar unidad : HL-DT-STDVDRAM GH22NS50 Adapter: 3 ID: 0

Modo de Lectura : Explosivo

Corrección de Desplazamiento de Lectura : 0
Sobreleer tanto en Lead-In como en Lead-Out : No
Rellenar las muestras faltantes con silencios : Sí
Eliminar silencios inicial y final : No
Se han usado muestras nulas en los cálculos CRC : No
Interfaz usada : Interfaz propio de Win32 para Windowns NT y 2000

Formato de Salida utilizado : Monkey's Audio Lossless Encoder v3.99 DLL
Formato de Muestreo : High Lossless Compression


TOC del CD extraido

Pista | Inicio | Duración | Sector inicial | Sector final
-------------------------------------------------------------
1 | 0:00.32 | 7:09.48 | 32 | 32254
2 | 7:10.05 | 1:41.00 | 32255 | 39829
3 | 8:51.05 | 3:18.57 | 39830 | 54736
4 | 12:09.62 | 1:01.48 | 54737 | 59359
5 | 13:11.35 | 1:13.42 | 59360 | 64876
6 | 14:25.02 | 1:07.55 | 64877 | 69956
7 | 15:32.57 | 1:40.25 | 69957 | 77481
8 | 17:13.07 | 3:17.28 | 77482 | 92284
9 | 20:30.35 | 2:39.62 | 92285 | 104271
10 | 23:10.22 | 3:14.25 | 104272 | 118846
11 | 26:24.47 | 1:34.33 | 118847 | 125929
12 | 27:59.05 | 2:04.52 | 125930 | 135281
13 | 30:03.57 | 4:07.18 | 135282 | 153824
14 | 34:11.00 | 3:46.05 | 153825 | 170779
15 | 37:57.05 | 0:54.32 | 170780 | 174861
16 | 38:51.37 | 4:47.03 | 174862 | 196389
17 | 43:38.40 | 2:41.40 | 196390 | 208504
18 | 46:20.05 | 1:55.42 | 208505 | 217171
19 | 48:15.47 | 2:16.00 | 217172 | 227371
20 | 50:31.47 | 5:22.48 | 227372 | 251569


Gama de estados y errores

Seleccionar gama

Nombre de Archivo G:\Kagel-Bach\Mauricio Kagel 8_Sankt-Bach-Passion CD1.ape

Nivel Pico 100.0 %
Copiar CRC B56ED7A0
Copia OK

Sin Errores

Final del Informe


EAC LOG CD2
Exact Audio Copy V0.99 prebeta 4 from 23. January 2008

Archivo Log de extracciones desde 24. Diciembre 2009, 20:40

Artista desconocido / Título desconocido

Usar unidad : HL-DT-STDVDRAM GH22NS50 Adapter: 3 ID: 0

Modo de Lectura : Explosivo

Corrección de Desplazamiento de Lectura : 0
Sobreleer tanto en Lead-In como en Lead-Out : No
Rellenar las muestras faltantes con silencios : Sí
Eliminar silencios inicial y final : No
Se han usado muestras nulas en los cálculos CRC : No
Interfaz usada : Interfaz propio de Win32 para Windowns NT y 2000

Formato de Salida utilizado : Monkey's Audio Lossless Encoder v3.99 DLL
Formato de Muestreo : High Lossless Compression


TOC del CD extraido

Pista | Inicio | Duración | Sector inicial | Sector final
-------------------------------------------------------------
1 | 0:00.32 | 1:02.30 | 32 | 4711
2 | 1:02.62 | 7:43.73 | 4712 | 39509
3 | 8:46.60 | 2:59.72 | 39510 | 53006
4 | 11:46.57 | 1:28.65 | 53007 | 59671
5 | 13:15.47 | 1:11.48 | 59672 | 65044
6 | 14:27.20 | 4:21.05 | 65045 | 84624
7 | 18:48.25 | 1:13.00 | 84625 | 90099
8 | 20:01.25 | 6:14.27 | 90100 | 118176
9 | 26:15.52 | 0:59.28 | 118177 | 122629
10 | 27:15.05 | 5:06.00 | 122630 | 145579
11 | 32:21.05 | 5:47.30 | 145580 | 171634
12 | 38:08.35 | 4:42.40 | 171635 | 192824
13 | 42:51.00 | 1:22.15 | 192825 | 198989


Gama de estados y errores

Seleccionar gama

Nombre de Archivo G:\Kagel-Bach\Kagel-Bach 2\Mauricio Kagel 8_Sankt-Bach-Passion CD2.ape

Problema de Sincronización 0:00:00
Problema de Sincronización 0:00:22
Problema de Sincronización 0:02:00
Problema de Sincronización 0:04:06

Nivel Pico 100.0 %
Copiar CRC 93231475
Copia terminada

Sin Errores

Final del Informe



ADVERTISING » Download fast « ADVERTISING
Posted By: verb Date: 27 Jan 2022 18:36:22
Thank you, denegado! That's great.
And damned RShare(. I am looking forward to dwnld.
Posted By: basa005 Date: 27 Jan 2022 18:45:58
care: masterpiece!
great post!
many thanks!!!
Posted By: d'Avignon Date: 27 Jan 2022 19:24:19
Nice concept. I think I said elsewhere, there's music and there's Bach.
I don't listen to Bach that often, he's too good. Apparently, Kagel thought the same.
Thank you
Posted By: FreddieCouples Date: 27 Jan 2022 23:22:39
A very interesting comment by d'Avignon. I listened to him actually every day for some 25 years, then had a "revelation"/breakthrough, stopped completely, and now, after some 5 years, start to listen to him again. Check out hexachord.at - a guy from Austria re-discovered his compositional main tool/idea, the hexachord.

Cheers

FC
Posted By: peachfuzz Date: 28 Jan 2022 01:28:33
Then there's the subtle distinction between a master and a masterpiece. I'm about to find out for myself. Thanks for sharing!
Posted By: josefinapan Date: 28 Jan 2022 04:47:53
Joya INCONSEGUIBLE en Argentina. Muchas Gracias !!! Thanks for sharing.
Posted By: josefinapan Date: 28 Jan 2022 05:07:18
Agrego: Maurico Kagel nació en Buenos Aires, Argentina, el 24 de diciembre de 1931 y falleció el 18 de septiembre de 2008 en Colonia, Alemania, donde residía desde 1957.
Posted By: Mooh Date: 28 Jan 2022 10:43:23
Graciaaas!
Posted By: ooliver Date: 28 Jan 2022 11:28:13
wonderful Bachagel: thanks for sharing
Posted By: WMM Date: 31 Jan 2022 18:44:33
If somebody's looking for the libretto - it can be found here

http://www.radio4.nl/data/media/db_download/49_c63bd8.pdf

(comes from the 2008 performance under Markus Stenz)
Recent searches:
DONATE AVAXHOME:

Donate please!