Loading...
Done
Home > Music
Andrea Bocelli - Andrea (2004) [lossless] {repost}
Posted By : stfine | Date : 28 Feb 2022 17:40:21 | Comments : 1
Andrea Bocelli - Andrea (2004) lossless

Andrea Bocelli - Andrea (2004) [lossless]
Vocal Pop, Crossover | FLAC image, CUE, LOG | covers 300dpi | 373 MB
Label: Universal, Sugar Music, Philips B0003513-02

The title may imply a casual intimacy (indeed, the singer admits to taking a more "hands-on" approach to the album's conception and production), but it's a collection that nonetheless continues to expand on the Italian tenor's ambitious internationalism. His collaboration "Sin Tu Amor" immerses his voice in the Gipsy Kings' own rich Iberian folk-pop fusion with compelling results, while "Where Love Goes" (a musical focal point of the film Lazarus Child), his English language duet with 11-year-old prodigy Holly Stell, achieves an almost liturgical grace. "Tu Ci Sei" (You Are There) continues in the romantic vein of his familiar theme "Con Te Partiro" (Time to Say Goodbye), while the single "Dell' Amore Non Si Sa" (With Love You Never Know) features Bocelli in a signature dramatic tour de force collaboration with arranger Mauro Malavasi, the accomplished producer of the singer's Romanza and Sogno albums.

Tracklist:
01. Dell'Amore Non Si Sa (3:44)
02. L'Attesa (4:32)
03. Un Nuovo Giorno (4:14)
04. Tu Ci Sei (4:44)
05. Semplicemente (Canto Per Te) (4:32)
06. Libertà (3:57)
07. Per Noi (4:00)
08. Le Parole Che Non Ti Ho Detto (4:08)
09. Sin Tu Amor (feat. Mario Reyes) (4:38)
10. Sempre O Mai (3:42)
11. In-Canto (4:14)
12. Quante Volte Ti Ho Cercato (5:09)
13. Domani (3:11)
14. Go Where Love Goes (feat. Holly Stell) (4:11)
15. When A Child Is Born (3:52)

EAC log
Exact Audio Copy V0.99 prebeta 4 from 23. January 2008

Отчёт EAC об извлечении, выполненном 19. февраля 2009, 15:13

Andrea Bocelli / Andrea

Дисковод: TSSTcorpCDDVDW SN-S082N Adapter: 1 ID: 0

Режим чтения : Достоверность
Использование точного потока : Да
Отключение кэша аудио : Да
Использование указателей C2 : Нет

Коррекция смещения при чтении : 6
Способность читать области Lead-in и Lead-out : Нет
Заполнение пропущенных сэмплов тишиной : Да
Удаление блоков с тишиной в начале и конце : Нет
При вычислениях CRC использовались нулевые сэмплы : Нет
Интерфейс : Встроенный Win32-интерфейс для Win NT/2000

Выходной формат : Внутренние WAV-операции
Формат сэмплов : 44.100 Гц; 16 бит; стерео


TOC извлечённого CD

Трек | Старт | Длительность | Начальный сектор | Конечный сектор
---------------------------------------------------------------------
1 | 0:00.00 | 3:43.42 | 0 | 16766
2 | 3:43.42 | 4:31.70 | 16767 | 37161
3 | 8:15.37 | 4:14.18 | 37162 | 56229
4 | 12:29.55 | 4:44.27 | 56230 | 77556
5 | 17:14.07 | 4:31.70 | 77557 | 97951
6 | 21:46.02 | 3:57.03 | 97952 | 115729
7 | 25:43.05 | 4:00.20 | 115730 | 133749
8 | 29:43.25 | 4:07.72 | 133750 | 152346
9 | 33:51.22 | 4:37.48 | 152347 | 173169
10 | 38:28.70 | 3:41.67 | 173170 | 189811
11 | 42:10.62 | 4:14.08 | 189812 | 208869
12 | 46:24.70 | 5:08.47 | 208870 | 232016
13 | 51:33.42 | 3:11.25 | 232017 | 246366
14 | 54:44.67 | 4:11.15 | 246367 | 265206
15 | 58:56.07 | 3:51.58 | 265207 | 282589


Характеристики диапазона извлечения и сообщения об ошибках

Выбранный диапазон

Имя файла D:\Andrea Bocelli\2004 - Andrea\Andrea Bocelli - Andrea.wav

Пиковый уровень 100.0 %
Качество диапазона 100.0 %
CRC копии 4BC83A35
Копирование... OK

Ошибок не произошло

Конец отчёта

Listen to samples on Amazon

ADVERTISING » Download fast « ADVERTISING
Posted By: trench Date: 01 Mar 2022 20:48:26

Thanks for this Bocelli recording.....love his singing
Recent searches:
DONATE AVAXHOME:

Donate please!