Loading...
Done
Home > Music
Alison Moyet - The Best Of, 25 Years Revisited (2CD Deluxe) (2009) [lossless]
Posted By : stfine | Date : 01 Mar 2022 00:48:24 | Comments : 2
Alison Moyet - The Best Of, 25 Years Revisited (2CD Deluxe) (2009) lossless

Alison Moyet - The Best Of, 25 Years Revisited (2CD Deluxe) (2009) [lossless]
Synthpop, Pop, Rock, Blues | APE images, CUE, LOG | artwork | 778 MB (inc. recovery)
Label: Sony/BMG

Acclaimed singer Alison Moyet (ex-Yazoo) marks her incredible three-decade spanning career with the release of The Best Of: 25 Years Revisited. This deluxe 2CD version of the album contains 11 brand new interpretations of Alison’s favourite songs from her back catalogue recorded with her current live band. The Best Of Alison Moyet is a true reflection of the extraordinary music produced by Alison Moyet over the last 25 years and a testament to the diversity of her talents. The songs included on the album form a definitive representation of her stunning and vivacious vocal style and range, from subtle blues and bombastic soul to big pop chart hits. The Top 10 singles "All Cried Out", "Love Resurrection", "Invisible" and "Is This Love" are all included on this 20 track anthology, as are the heartbreakingly honest ballad "This House" and the modern soul of "Hoodoo". Timeless cover versions of "That Ole Devil Called Love" and "Love Letters", which both cracked the Top 5 upon release in 1985 and 1987 respectively, and "Windmills Of Your Mind" and "Almost Blue" from 2004’s Voice album, perfectly demonstrate the smoky range of Alison’s blues vocals, are all included on this comprehensive collection of solo work.

Tracklist

CD 1/2
1. Love Resurrection (03:52)
2. All Cried Out (03:41)
3. Invisible (04:00)
4. Where Hides Sleep (03:49)
5. That Ole Devil Called Love (03:05)
6. Is This Love? (03:58)
7. Weak In The Presens Of Beauty (03:46)
8. Ordinary Girl (03:25)
9. Love Letters (02:50)
10. It Won't Be Long (04:15)
11. This House (03:56)
12. Hoodoo (04:41)
13. Footsteps (05:00)
14. Whispering Your Name (03:28)
15. Should I Feel That It's Over (04:01)
16. More (03:59)
17. Yesterdays Flame (04:28)
18. Windmills Of Your Mind (03:50)
19. Almost Blue (03:53)
20. One More Time (04:02)

EAC log
Exact Audio Copy V0.99 prebeta 4 from 23. January 2008

Отчёт EAC об извлечении, выполненном 26. октября 2009, 19:33

Alison Moyet / The Best Of - 25 Years Revisted

Дисковод: PIONEER DVD-RW DVR-112D Adapter: 1 ID: 0

Режим чтения : Достоверность
Использование точного потока : Да
Отключение кэша аудио : Да
Использование указателей C2 : Нет

Коррекция смещения при чтении : 48
Способность читать области Lead-in и Lead-out : Нет
Заполнение пропущенных сэмплов тишиной : Да
Удаление блоков с тишиной в начале и конце : Нет
При вычислениях CRC использовались нулевые сэмплы : Да
Интерфейс : Установленный внешний ASPI-интерфейс

Выходной формат : Внутренние WAV-операции
Формат сэмплов : 44.100 Гц; 16 бит; стерео


TOC извлечённого CD

Трек | Старт | Длительность | Начальный сектор | Конечный сектор
---------------------------------------------------------------------
1 | 0:00.00 | 3:52.35 | 0 | 17434
2 | 3:52.35 | 3:41.63 | 17435 | 34072
3 | 7:34.23 | 4:00.54 | 34073 | 52126
4 | 11:35.02 | 3:49.64 | 52127 | 69365
5 | 15:24.66 | 3:05.22 | 69366 | 83262
6 | 18:30.13 | 3:58.48 | 83263 | 101160
7 | 22:28.61 | 3:46.62 | 101161 | 118172
8 | 26:15.48 | 3:25.57 | 118173 | 133604
9 | 29:41.30 | 2:50.55 | 133605 | 146409
10 | 32:32.10 | 4:15.16 | 146410 | 165550
11 | 36:47.26 | 3:56.13 | 165551 | 183263
12 | 40:43.39 | 4:41.61 | 183264 | 204399
13 | 45:25.25 | 5:00.17 | 204400 | 226916
14 | 50:25.42 | 3:28.38 | 226917 | 242554
15 | 53:54.05 | 4:01.49 | 242555 | 260678
16 | 57:55.54 | 3:59.34 | 260679 | 278637
17 | 61:55.13 | 4:28.01 | 278638 | 298738
18 | 66:23.14 | 3:50.42 | 298739 | 316030
19 | 70:13.56 | 3:53.04 | 316031 | 333509
20 | 74:06.60 | 4:02.19 | 333510 | 351678


Характеристики диапазона извлечения и сообщения об ошибках

Выбранный диапазон

Имя файла E:\torrents.ru\раздачи\Alison Moyet\CD1\Alison Moyet - The Best Of - 25 Years Revisted.wav

Пиковый уровень 98.8 %
Качество диапазона 99.6 %
CRC теста 9CFBDF9B
CRC копии 9CFBDF9B
Копирование... OK

Ошибок не произошло

Конец отчёта

CD 2/2
1. All Cried Out (04:51)
2. Ski (04:39)
3. Hoodoo (04:03)
4. Ordinary Girl (03:16)
5. Midnught (04:39)
6. This House (03:47)
7. Find Me (04:46)
8. Footsteps (03:32)
9. Is This Love? (03:53)
10. Situation (02:09)
11. Wishing You Were Here (03:40)

EAC log
Exact Audio Copy V0.99 prebeta 4 from 23. January 2008

Отчёт EAC об извлечении, выполненном 26. октября 2009, 20:06

Alison Moyet / The Best Of - 25 Years Revisted

Дисковод: PIONEER DVD-RW DVR-112D Adapter: 1 ID: 0

Режим чтения : Достоверность
Использование точного потока : Да
Отключение кэша аудио : Да
Использование указателей C2 : Нет

Коррекция смещения при чтении : 48
Способность читать области Lead-in и Lead-out : Нет
Заполнение пропущенных сэмплов тишиной : Да
Удаление блоков с тишиной в начале и конце : Нет
При вычислениях CRC использовались нулевые сэмплы : Да
Интерфейс : Установленный внешний ASPI-интерфейс

Выходной формат : Внутренние WAV-операции
Формат сэмплов : 44.100 Гц; 16 бит; стерео


TOC извлечённого CD

Трек | Старт | Длительность | Начальный сектор | Конечный сектор
---------------------------------------------------------------------
1 | 0:00.00 | 4:51.58 | 0 | 21882
2 | 4:51.58 | 4:39.73 | 21883 | 42880
3 | 9:31.56 | 4:03.38 | 42881 | 61143
4 | 13:35.19 | 3:16.53 | 61144 | 75896
5 | 16:51.72 | 4:39.31 | 75897 | 96852
6 | 21:31.28 | 3:47.34 | 96853 | 113911
7 | 25:18.62 | 4:46.10 | 113912 | 135371
8 | 30:04.72 | 3:32.01 | 135372 | 151272
9 | 33:36.73 | 3:53.62 | 151273 | 168809
10 | 37:30.60 | 2:09.06 | 168810 | 178490
11 | 39:39.66 | 3:40.09 | 178491 | 194999


Характеристики диапазона извлечения и сообщения об ошибках

Выбранный диапазон

Имя файла E:\torrents.ru\раздачи\Alison Moyet\CD2\Alison Moyet - The Best Of - 25 Years Revisted.wav

Пиковый уровень 98.0 %
Качество диапазона 99.6 %
CRC теста 931B4825
CRC копии 931B4825
Копирование... OK

Ошибок не произошло

Конец отчёта

Listen to samples on Amazon

ADVERTISING » Download fast « ADVERTISING
Posted By: RocknRollElitist Date: 01 Mar 2022 02:55:30
This is the initial title in Sony's new reissue/remaster campaign of the entire Alison Moyet catalog. Will you be featuring her debut ("ALF") for download when it is issued this month? Thanks in advance.
Posted By: Nigelxxx Date: 02 Mar 2022 23:09:57
Thanks for this brilliant album.
Recent searches:
DONATE AVAXHOME:

Donate please!