Loading...
Done
Home > Music
Albert Collins - The Complete Imperial Recordings (1991)
Posted By : musicjunky | Date : 27 Jan 2022 23:13:35 | Comments : 3

Albert Collins - The Complete Imperial Recordings (1991)
EAC AccurateRip | FLAC + Log + Cue | Scans | 604 MB | HF + RS | 5% recovery
Label: EMI Records CDP-7-96740-2 | 2 Discs | Genre: Blues

Albert Collins, "The Master of the Telecaster," "The Iceman," and "The Razor Blade" was robbed of his best years as a blues performer by a bout with liver cancer that ended with his premature death on November 24, 1993. He was just 61 years old. The highly influential, totally original Collins, like the late John Campbell, was on the cusp of a much wider worldwide following via his deal with Virgin Records' Pointblank subsidiary. However, unlike Campbell, Collins had performed for many more years, in obscurity, before finally finding a following in the mid-'80s.

Texan Albert Collins was in the very first rank of post-war blues guitarists. This two-CD set is a reissue of all 36 sides he cut for Imperial from 1968 to 1970, representing this artist's second major recording stint. Instrumentals comprise roughly three-fourths of the material. They frame his distinctive guitar work with a tight ensemble of organ, bass, and drums, adding at times a piano and/or second guitar, punctuated by a horn section. About ten of these tunes are as great as anything Collins ever did. They are riddled with the biting, incisive, dramatic, and economical playing that made him a legend. There are also some outstanding vocals. Although this set is not without its clinkers, it is a solid package and a must for any Collins fan.

Tracks:
DISC 1
01 - Do The Sissy
02 - Collins' Mix
03 - Let's Get It Together
04 - Got A Good Thing Goin'
05 - All About My Girl
06 - Stump Poker
07 - Let's Get It Together Again
08 - Ain't Got Time
09 - Turnin' On
10 - Whatcha Say (I Don't Know)
11 - Pushin'
12 - Doin' My Thing
13 - Harris County Line-Up
14 - Conversation Wth Collins
15 - Jawing
16 - Grapeland Gossip
17 - Chatterbox
18 - Trash Talkin'

EAC LOG
Exact Audio Copy V0.99 prebeta 5 from 4. May 2009

EAC extraction logfile from 24. January 2010, 10:26

Albert Collins / The Complete Imperial Recordings (Disc 1)

Used drive : Memorex 52MAXX 3252AJ1v2 Adapter: 0 ID: 0

Read mode : Secure
Utilize accurate stream : Yes
Defeat audio cache : Yes
Make use of C2 pointers : No

Read offset correction : 6
Overread into Lead-In and Lead-Out : No
Fill up missing offset samples with silence : Yes
Delete leading and trailing silent blocks : No
Null samples used in CRC calculations : Yes
Used interface : Native Win32 interface for Win NT & 2000
Gap handling : Appended to previous track

Used output format : User Defined Encoder
Selected bitrate : 1024 kBit/s
Quality : High
Add ID3 tag : Yes
Command line compressor : C:\Program Files\Exact Audio Copy\flac.exe
Additional command line options : -8 -V -T "artist=%a" -T "title=%t" -T "album=%g" -T "date=%y" -T "tracknumber=%n" -T "genre=%m" %s


TOC of the extracted CD

Track | Start | Length | Start sector | End sector
---------------------------------------------------------
1 | 0:00.32 | 4:05.10 | 32 | 18416
2 | 4:05.42 | 2:28.50 | 18417 | 29566
3 | 6:34.17 | 2:18.13 | 29567 | 39929
4 | 8:52.30 | 3:27.57 | 39930 | 55511
5 | 12:20.12 | 2:11.45 | 55512 | 65381
6 | 14:31.57 | 2:39.55 | 65382 | 77361
7 | 17:11.37 | 2:43.40 | 77362 | 89626
8 | 19:55.02 | 3:05.35 | 89627 | 103536
9 | 23:00.37 | 2:47.45 | 103537 | 116106
10 | 25:48.07 | 1:53.05 | 116107 | 124586
11 | 27:41.12 | 2:24.25 | 124587 | 135411
12 | 30:05.37 | 1:37.50 | 135412 | 142736
13 | 31:43.12 | 2:20.48 | 142737 | 153284
14 | 34:03.60 | 5:23.72 | 153285 | 177581
15 | 39:27.57 | 2:15.18 | 177582 | 187724
16 | 41:43.00 | 2:50.27 | 187725 | 200501
17 | 44:33.27 | 2:26.08 | 200502 | 211459
18 | 46:59.35 | 4:06.55 | 211460 | 229964


Track 1

Filename G:\EAC Rips\Albert Collins - 1991 - The Complete Imperial Recordings (Disc 1)\01 - Do The Sissy.wav

Pre-gap length 0:00:02.42

Peak level 89.5 %
Track quality 100.0 %
Test CRC 20EAE37D
Copy CRC 20EAE37D
Accurately ripped (confidence 16) [BD4AFA19]
Copy OK

Track 2

Filename G:\EAC Rips\Albert Collins - 1991 - The Complete Imperial Recordings (Disc 1)\02 - Collins' Mix.wav

Pre-gap length 0:00:01.42

Peak level 73.5 %
Track quality 100.0 %
Test CRC 2F901A91
Copy CRC 2F901A91
Accurately ripped (confidence 16) [28768B28]
Copy OK

Track 3

Filename G:\EAC Rips\Albert Collins - 1991 - The Complete Imperial Recordings (Disc 1)\03 - Let's Get It Together.wav

Pre-gap length 0:00:02.02

Peak level 91.5 %
Track quality 100.0 %
Test CRC FB3A2805
Copy CRC FB3A2805
Accurately ripped (confidence 16) [882F93F1]
Copy OK

Track 4

Filename G:\EAC Rips\Albert Collins - 1991 - The Complete Imperial Recordings (Disc 1)\04 - Got A Good Thing Goin'.wav

Pre-gap length 0:00:01.86

Peak level 92.9 %
Track quality 100.0 %
Test CRC DFF15A14
Copy CRC DFF15A14
Accurately ripped (confidence 16) [A088438A]
Copy OK

Track 5

Filename G:\EAC Rips\Albert Collins - 1991 - The Complete Imperial Recordings (Disc 1)\05 - All About My Girl.wav

Pre-gap length 0:00:01.96

Peak level 83.5 %
Track quality 100.0 %
Test CRC 167F4D19
Copy CRC 167F4D19
Accurately ripped (confidence 16) [A8E8A117]
Copy OK

Track 6

Filename G:\EAC Rips\Albert Collins - 1991 - The Complete Imperial Recordings (Disc 1)\06 - Stump Poker.wav

Pre-gap length 0:00:02.40

Peak level 86.8 %
Track quality 99.9 %
Test CRC FE1DE258
Copy CRC FE1DE258
Accurately ripped (confidence 16) [6478410B]
Copy OK

Track 7

Filename G:\EAC Rips\Albert Collins - 1991 - The Complete Imperial Recordings (Disc 1)\07 - Let's Get It Together Again.wav

Pre-gap length 0:00:01.69

Peak level 85.0 %
Track quality 100.0 %
Test CRC 0BF1913F
Copy CRC 0BF1913F
Accurately ripped (confidence 16) [8F4539E9]
Copy OK

Track 8

Filename G:\EAC Rips\Albert Collins - 1991 - The Complete Imperial Recordings (Disc 1)\08 - Ain't Got Time.wav

Pre-gap length 0:00:02.06

Peak level 97.2 %
Track quality 100.0 %
Test CRC 83915960
Copy CRC 83915960
Accurately ripped (confidence 16) [2D6D625E]
Copy OK

Track 9

Filename G:\EAC Rips\Albert Collins - 1991 - The Complete Imperial Recordings (Disc 1)\09 - Turnin' On.wav

Pre-gap length 0:00:01.96

Peak level 91.8 %
Track quality 100.0 %
Test CRC 98B4529B
Copy CRC 98B4529B
Accurately ripped (confidence 16) [F6E53959]
Copy OK

Track 10

Filename G:\EAC Rips\Albert Collins - 1991 - The Complete Imperial Recordings (Disc 1)\10 - Whatcha Say (I Don't Know).wav

Pre-gap length 0:00:01.66

Peak level 72.9 %
Track quality 100.0 %
Test CRC 009C8A00
Copy CRC 009C8A00
Accurately ripped (confidence 16) [7B65B39E]
Copy OK

Track 11

Filename G:\EAC Rips\Albert Collins - 1991 - The Complete Imperial Recordings (Disc 1)\11 - Pushin'.wav

Pre-gap length 0:00:01.93

Peak level 93.1 %
Track quality 100.0 %
Test CRC 19A51A82
Copy CRC 19A51A82
Accurately ripped (confidence 16) [CA9D683F]
Copy OK

Track 12

Filename G:\EAC Rips\Albert Collins - 1991 - The Complete Imperial Recordings (Disc 1)\12 - Doin' My Thing.wav

Pre-gap length 0:00:01.73

Peak level 97.3 %
Track quality 100.0 %
Test CRC 0CC0ABF1
Copy CRC 0CC0ABF1
Accurately ripped (confidence 16) [4F193E33]
Copy OK

Track 13

Filename G:\EAC Rips\Albert Collins - 1991 - The Complete Imperial Recordings (Disc 1)\13 - Harris County Line-Up.wav

Pre-gap length 0:00:01.81

Peak level 99.9 %
Track quality 100.0 %
Test CRC DD2A6D34
Copy CRC DD2A6D34
Accurately ripped (confidence 16) [CBC99CE4]
Copy OK

Track 14

Filename G:\EAC Rips\Albert Collins - 1991 - The Complete Imperial Recordings (Disc 1)\14 - Conversation Wth Collins.wav

Pre-gap length 0:00:01.70

Peak level 98.2 %
Track quality 100.0 %
Test CRC 1945FE84
Copy CRC 1945FE84
Accurately ripped (confidence 16) [FA44994E]
Copy OK

Track 15

Filename G:\EAC Rips\Albert Collins - 1991 - The Complete Imperial Recordings (Disc 1)\15 - Jawing.wav

Pre-gap length 0:00:02.45

Peak level 98.6 %
Track quality 100.0 %
Test CRC CCEEE68A
Copy CRC CCEEE68A
Accurately ripped (confidence 16) [42D11B40]
Copy OK

Track 16

Filename G:\EAC Rips\Albert Collins - 1991 - The Complete Imperial Recordings (Disc 1)\16 - Grapeland Gossip.wav

Pre-gap length 0:00:01.53

Peak level 96.3 %
Track quality 99.9 %
Test CRC 2067A10C
Copy CRC 2067A10C
Accurately ripped (confidence 16) [67D01CD2]
Copy OK

Track 17

Filename G:\EAC Rips\Albert Collins - 1991 - The Complete Imperial Recordings (Disc 1)\17 - Chatterbox.wav

Pre-gap length 0:00:01.09

Peak level 98.3 %
Track quality 99.9 %
Test CRC 78B036BB
Copy CRC 78B036BB
Accurately ripped (confidence 15) [B4168B46]
Copy OK

Track 18

Filename G:\EAC Rips\Albert Collins - 1991 - The Complete Imperial Recordings (Disc 1)\18 - Trash Talkin'.wav

Pre-gap length 0:00:01.70

Peak level 98.6 %
Track quality 99.9 %
Test CRC C20A4093
Copy CRC C20A4093
Accurately ripped (confidence 15) [79583F77]
Copy OK


All tracks accurately ripped

No errors occurred

End of status report

DISC 2
01 - Baby What You Want Me To Do/Rock Me Baby
02 - Lip Service
03 - Things That I Used To Do (Talking Slim Blues)
04 - Back Yard Back Talk
05 - Tounge Lashing
06 - And Then It Started Raining
07 - Soul Food
08 - Jam It Up
09 - Do What You Want To Do
10 - Black Bottom Bayou
11 - Junkey Monkey
12 - 69 Underpass Roadside Inn
13 - I Need You So
14 - Bitsey
15 - Cool 'N Collards
16 - Blend Down And Jam
17 - Sweet 'N Sour
18 - Swamp Sauce

EAC LOG
Exact Audio Copy V0.99 prebeta 5 from 4. May 2009

EAC extraction logfile from 24. January 2010, 11:34

Albert Collins / The Complete Imperial Recordings (Disc 2)

Used drive : Memorex 52MAXX 3252AJ1v2 Adapter: 0 ID: 0

Read mode : Secure
Utilize accurate stream : Yes
Defeat audio cache : Yes
Make use of C2 pointers : No

Read offset correction : 6
Overread into Lead-In and Lead-Out : No
Fill up missing offset samples with silence : Yes
Delete leading and trailing silent blocks : No
Null samples used in CRC calculations : Yes
Used interface : Native Win32 interface for Win NT & 2000
Gap handling : Appended to previous track

Used output format : User Defined Encoder
Selected bitrate : 1024 kBit/s
Quality : High
Add ID3 tag : Yes
Command line compressor : C:\Program Files\Exact Audio Copy\flac.exe
Additional command line options : -8 -V -T "artist=%a" -T "title=%t" -T "album=%g" -T "date=%y" -T "tracknumber=%n" -T "genre=%m" %s


TOC of the extracted CD

Track | Start | Length | Start sector | End sector
---------------------------------------------------------
1 | 0:00.32 | 4:04.08 | 32 | 18339
2 | 4:04.40 | 3:19.07 | 18340 | 33271
3 | 7:23.47 | 3:28.28 | 33272 | 48899
4 | 10:52.00 | 2:52.37 | 48900 | 61836
5 | 13:44.37 | 2:52.35 | 61837 | 74771
6 | 16:36.72 | 2:44.63 | 74772 | 87134
7 | 19:21.60 | 2:10.20 | 87135 | 96904
8 | 21:32.05 | 2:33.20 | 96905 | 108399
9 | 24:05.25 | 2:52.00 | 108400 | 121299
10 | 26:57.25 | 2:16.02 | 121300 | 131501
11 | 29:13.27 | 2:21.38 | 131502 | 142114
12 | 31:34.65 | 2:52.67 | 142115 | 155081
13 | 34:27.57 | 2:59.18 | 155082 | 168524
14 | 37:27.00 | 2:20.70 | 168525 | 179094
15 | 39:47.70 | 2:26.55 | 179095 | 190099
16 | 42:14.50 | 2:03.70 | 190100 | 199394
17 | 44:18.45 | 2:18.60 | 199395 | 209804
18 | 46:37.30 | 2:23.45 | 209805 | 220574


Track 1

Filename G:\EAC Rips\Albert Collins - 1991 - The Complete Imperial Recordings (Disc 2)\01 - Baby What You Want Me To Do,Rock Me Baby.wav

Pre-gap length 0:00:02.42

Peak level 100.0 %
Track quality 100.0 %
Test CRC 5B187BFF
Copy CRC 5B187BFF
Accurately ripped (confidence 6) [CE92F6AF]
Copy OK

Track 2

Filename G:\EAC Rips\Albert Collins - 1991 - The Complete Imperial Recordings (Disc 2)\02 - Lip Service.wav

Pre-gap length 0:00:01.84

Peak level 100.0 %
Track quality 100.0 %
Test CRC F6BF1FE7
Copy CRC F6BF1FE7
Accurately ripped (confidence 6) [158D32A1]
Copy OK

Track 3

Filename G:\EAC Rips\Albert Collins - 1991 - The Complete Imperial Recordings (Disc 2)\03 - Things That I Used To Do (Talking Slim Blues).wav

Pre-gap length 0:00:02.46

Peak level 100.0 %
Track quality 100.0 %
Test CRC 515B63C2
Copy CRC 515B63C2
Accurately ripped (confidence 6) [3BB0412F]
Copy OK

Track 4

Filename G:\EAC Rips\Albert Collins - 1991 - The Complete Imperial Recordings (Disc 2)\04 - Back Yard Back Talk.wav

Pre-gap length 0:00:02.17

Peak level 100.0 %
Track quality 100.0 %
Test CRC 7C6AD172
Copy CRC 7C6AD172
Accurately ripped (confidence 6) [4E2B4C3B]
Copy OK

Track 5

Filename G:\EAC Rips\Albert Collins - 1991 - The Complete Imperial Recordings (Disc 2)\05 - Tounge Lashing.wav

Pre-gap length 0:00:01.33

Peak level 100.0 %
Track quality 100.0 %
Test CRC DD56FA86
Copy CRC DD56FA86
Accurately ripped (confidence 6) [BCA9F6F1]
Copy OK

Track 6

Filename G:\EAC Rips\Albert Collins - 1991 - The Complete Imperial Recordings (Disc 2)\06 - And Then It Started Raining.wav

Pre-gap length 0:00:02.00

Peak level 100.0 %
Track quality 100.0 %
Test CRC AB6C869B
Copy CRC AB6C869B
Accurately ripped (confidence 6) [1EC09667]
Copy OK

Track 7

Filename G:\EAC Rips\Albert Collins - 1991 - The Complete Imperial Recordings (Disc 2)\07 - Soul Food.wav

Pre-gap length 0:00:01.33

Peak level 100.0 %
Track quality 100.0 %
Test CRC 59BCE75B
Copy CRC 59BCE75B
Accurately ripped (confidence 6) [16F8BB9C]
Copy OK

Track 8

Filename G:\EAC Rips\Albert Collins - 1991 - The Complete Imperial Recordings (Disc 2)\08 - Jam It Up.wav

Pre-gap length 0:00:02.13

Peak level 99.9 %
Track quality 100.0 %
Test CRC 2A7E2870
Copy CRC 2A7E2870
Accurately ripped (confidence 6) [E52D567E]
Copy OK

Track 9

Filename G:\EAC Rips\Albert Collins - 1991 - The Complete Imperial Recordings (Disc 2)\09 - Do What You Want To Do.wav

Pre-gap length 0:00:01.33

Peak level 100.0 %
Track quality 99.9 %
Test CRC 5BB87E7C
Copy CRC 5BB87E7C
Accurately ripped (confidence 6) [D5F1879A]
Copy OK

Track 10

Filename G:\EAC Rips\Albert Collins - 1991 - The Complete Imperial Recordings (Disc 2)\10 - Black Bottom Bayou.wav

Pre-gap length 0:00:02.17

Peak level 100.0 %
Track quality 100.0 %
Test CRC F66E8366
Copy CRC F66E8366
Accurately ripped (confidence 6) [2E442270]
Copy OK

Track 11

Filename G:\EAC Rips\Albert Collins - 1991 - The Complete Imperial Recordings (Disc 2)\11 - Junkey Monkey.wav

Pre-gap length 0:00:02.93

Peak level 95.2 %
Track quality 100.0 %
Test CRC 4E851EA5
Copy CRC 4E851EA5
Accurately ripped (confidence 6) [7E25D77A]
Copy OK

Track 12

Filename G:\EAC Rips\Albert Collins - 1991 - The Complete Imperial Recordings (Disc 2)\12 - 69 Underpass Roadside Inn.wav

Pre-gap length 0:00:01.84

Peak level 100.0 %
Track quality 100.0 %
Test CRC A47057FC
Copy CRC A47057FC
Accurately ripped (confidence 6) [36571899]
Copy OK

Track 13

Filename G:\EAC Rips\Albert Collins - 1991 - The Complete Imperial Recordings (Disc 2)\13 - I Need You So.wav

Pre-gap length 0:00:02.66

Peak level 99.8 %
Track quality 100.0 %
Test CRC D831541E
Copy CRC D831541E
Accurately ripped (confidence 6) [482458C8]
Copy OK

Track 14

Filename G:\EAC Rips\Albert Collins - 1991 - The Complete Imperial Recordings (Disc 2)\14 - Bitsey.wav

Pre-gap length 0:00:01.80

Peak level 100.0 %
Track quality 100.0 %
Test CRC DC2298CA
Copy CRC DC2298CA
Accurately ripped (confidence 6) [6E3E5DE8]
Copy OK

Track 15

Filename G:\EAC Rips\Albert Collins - 1991 - The Complete Imperial Recordings (Disc 2)\15 - Cool 'N Collards.wav

Pre-gap length 0:00:01.82

Peak level 100.0 %
Track quality 100.0 %
Test CRC B9FABB99
Copy CRC B9FABB99
Accurately ripped (confidence 6) [B381C0FE]
Copy OK

Track 16

Filename G:\EAC Rips\Albert Collins - 1991 - The Complete Imperial Recordings (Disc 2)\16 - Blend Down And Jam.wav

Pre-gap length 0:00:01.57

Peak level 100.0 %
Track quality 100.0 %
Test CRC 373CF591
Copy CRC 373CF591
Accurately ripped (confidence 6) [55C93960]
Copy OK

Track 17

Filename G:\EAC Rips\Albert Collins - 1991 - The Complete Imperial Recordings (Disc 2)\17 - Sweet 'N Sour.wav

Pre-gap length 0:00:01.44

Peak level 99.9 %
Track quality 99.9 %
Test CRC FB79E228
Copy CRC FB79E228
Accurately ripped (confidence 6) [70D1C500]
Copy OK

Track 18

Filename G:\EAC Rips\Albert Collins - 1991 - The Complete Imperial Recordings (Disc 2)\18 - Swamp Sauce.wav

Pre-gap length 0:00:02.04

Peak level 100.0 %
Track quality 100.0 %
Test CRC 3C6A069D
Copy CRC 3C6A069D
Accurately ripped (confidence 6) [FF1A776B]
Copy OK


All tracks accurately ripped

No errors occurred

End of status report

Hotfile Links



Rapid Share Links



Links Are Interchangeable


Password: musicjunky
ADVERTISING » Download fast « ADVERTISING
Posted By: j33433 Date: 28 Jan 2022 02:33:22
Thank you so much. He's one of my favorites.
Posted By: Planxty Date: 30 Jan 2022 13:31:17
Thanks for sharing.Albert Rules.
Posted By: 4-F Date: 30 Jan 2022 23:29:04
Thanks! I didn't even have a poor copy. Love the flac and scans!
Recent searches:
DONATE AVAXHOME:

Donate please!