Loading...
Done
Home > Music
Vic Chesnutt - North Star Deserter
Posted By : SteveJobs | Date : 21 Feb 2022 18:40:05 | Comments : 3
Vic Chesnutt

Vic Chesnutt - North Star Deserter (2007)
XLD Rip | Flac (Tracks) Cue, Log, m3u, md5, st5, ffp | complete Artwork 300 dpi | 424 MB
Alternative Rock | Urban Folk | 2007 | Constellation | CST046-2

A truly extraordinary recording. Chesnutt is a songwriter of singular talents, embracing a homey but keenly intelligent expressionism in his songs that conveys a genuine, often touching humanity, but his collaborators on North Star Deserter have taken his music in a powerful new direction…they’ve truly brought out the best in one another; this is powerful, adventurous music that’s as challenging as it is beautiful, and ranks with Chesnutt’s finest work to date.
ALL MUSIC


One of the richest and most satisfying of his storied career.
POPMATTERS


A rebirth…the harshly rough-around-the-edges tone of North Star Deserter provides a match for his bleakly self-searching narratives…the most urgent-sounding album he has made since the mid-‘90s
ALARM


His 11th album is a big surprise…filled with tender, witty, funny and heart wrenching moments of lyrical clarity. Chesnutt’s lyrics are by far and away some of the most impressive I have heard in a long time. The use of Thee Silver Mt. Zion as a backing group is both a surprising and excellent choice…They play sensitively and respectively within Chesnutt’s world, adding details that build on his words to make them shine even brighter than before. Hopefully this will be the start of a continued working relationship between Chesnutt and the Constellation crew.
BRAINWASHED


This may be his best work, and is one of those records that will almost certainly lead you back through his catalog to do some catching-up if you are unfamiliar with Chesnutt’s work; if you have followed him, this is just one more reason to keep following.
FOXY DIGITALIS



Vic Chesnutt - North Star Deserter

Tracklist

1 Warm
2 Glossolalia
3 Everything I Say
4 Wallace Stevens
5 You Are Never Alone
6 Fodder On Her Wings
7 Splendid
8 Rustic City Fathers
9 Over
10 Debriefing
11 Marathon
12 Rattle


Personnel

Vic Chesnutt: guitar, casio, lyrics, voice

With:
Thierry Amar: contrabasse, electric bass, singing
Howard Bilerman: drums
Bruce Cawdron: bowed vibraphone and glockenspiel
Jem Cohen: field recordings
Eric Craven: skateboardthing
Beckie Foon: cello, singing
Scott Gilmore: drums
T. Griffin: guitar, field recordings
Genevieve Heistek: viola
Ian Ilavsky: singing
Chad Jones: guitar, singing
Efrim Menuck: guitar, piano, harmonium, casio, singing
Jessica Moss: violin, singing
Nadia Moss: organ, piano, singing
Guy Picciotto: guitar, field recordings
Sophie Trudeau: violin

Recording

Recorded and mixed at Thee Mighty Hotel2Tango in Montreal by Howard Bilerman with Efrim and Thierry, winter 2006-2007.
Produced by Jem Cohen with Efrim, Thierry and Guy.
Mastered at Greymarket in Montreal by Harris Newman.


XLD Log
X Lossless Decoder version 20100218 (116.4)

XLD extraction logfile from 2022-02-20 16:20:06 +0100

Vic Chesnutt / North Star Deserter

Used drive : PIONEER DVD-RW DVR-K06A (revision Q631)

Use cdparanoia mode : YES (CDParanoia III 10.2 engine)
Disable audio cache : OK for the drive with cache less than 2750KB
Make use of C2 pointers : NO
Read offset correction : 48
Max retry count : 100

TOC of the extracted CD
Track | Start | Length | Start sector | End sector
---------------------------------------------------------
1 | 00:00:00 | 03:00:29 | 0 | 13528
2 | 03:00:29 | 03:32:13 | 13529 | 29441
3 | 06:32:42 | 06:53:48 | 29442 | 60464
4 | 13:26:15 | 02:17:25 | 60465 | 70764
5 | 15:43:40 | 05:45:24 | 70765 | 96663
6 | 21:28:64 | 03:12:70 | 96664 | 111133
7 | 24:41:59 | 08:29:01 | 111134 | 149309
8 | 33:10:60 | 04:23:55 | 149310 | 169089
9 | 37:34:40 | 04:00:57 | 169090 | 187146
10 | 41:35:22 | 08:27:04 | 187147 | 225175
11 | 50:02:26 | 05:34:02 | 225176 | 250227
12 | 55:36:28 | 01:28:74 | 250228 | 256901


Track 01
Filename : /Users/Desktop/Vic Chesnutt - North Star Deserter (2007) [FLAC]/01 - Warm.flac

Pre-gap length : 00:02:00

CRC32 hash (test run) : 029B5770
CRC32 hash : 029B5770
CRC32 hash (skip zero) : 79E77A8C
AccurateRip signature : DE0F5882
->Accurately ripped! (confidence 15)
Statistics
Read error : 0
Skipped (treated as error) : 0
Edge jitter error (maybe fixed) : 0
Atom jitter error (maybe fixed) : 0
Drift error (maybe fixed) : 0
Dropped bytes error (maybe fixed) : 0
Duplicated bytes error (maybe fixed) : 0
Inconsistency in error sectors : 0

Track 02
Filename : /Users/Desktop/Vic Chesnutt - North Star Deserter (2007) [FLAC]/02 - Glossolalia.flac

CRC32 hash (test run) : 129CEEE5
CRC32 hash : 129CEEE5
CRC32 hash (skip zero) : 764A3331
AccurateRip signature : 8F8E81FB
->Accurately ripped! (confidence 15)
Statistics
Read error : 0
Skipped (treated as error) : 0
Edge jitter error (maybe fixed) : 0
Atom jitter error (maybe fixed) : 0
Drift error (maybe fixed) : 0
Dropped bytes error (maybe fixed) : 0
Duplicated bytes error (maybe fixed) : 0
Inconsistency in error sectors : 0

Track 03
Filename : /Users/Desktop/Vic Chesnutt - North Star Deserter (2007) [FLAC]/03 - Everything I Say.flac

CRC32 hash (test run) : E716DF91
CRC32 hash : E716DF91
CRC32 hash (skip zero) : A9BDC360
AccurateRip signature : 9393368E
->Accurately ripped! (confidence 15)
Statistics
Read error : 0
Skipped (treated as error) : 0
Edge jitter error (maybe fixed) : 0
Atom jitter error (maybe fixed) : 0
Drift error (maybe fixed) : 0
Dropped bytes error (maybe fixed) : 0
Duplicated bytes error (maybe fixed) : 0
Inconsistency in error sectors : 0

Track 04
Filename : /Users/Desktop/Vic Chesnutt - North Star Deserter (2007) [FLAC]/04 - Wallace Stevens.flac

CRC32 hash (test run) : D125C03D
CRC32 hash : D125C03D
CRC32 hash (skip zero) : 69A1061E
AccurateRip signature : 70AA8C85
->Accurately ripped! (confidence 15)
Statistics
Read error : 0
Skipped (treated as error) : 0
Edge jitter error (maybe fixed) : 0
Atom jitter error (maybe fixed) : 0
Drift error (maybe fixed) : 0
Dropped bytes error (maybe fixed) : 0
Duplicated bytes error (maybe fixed) : 0
Inconsistency in error sectors : 0

Track 05
Filename : /Users/Desktop/Vic Chesnutt - North Star Deserter (2007) [FLAC]/05 - You Are Never Alone.flac

CRC32 hash (test run) : 1D814018
CRC32 hash : 1D814018
CRC32 hash (skip zero) : 081E24F9
AccurateRip signature : 00EA1370
->Accurately ripped! (confidence 15)
Statistics
Read error : 0
Skipped (treated as error) : 0
Edge jitter error (maybe fixed) : 0
Atom jitter error (maybe fixed) : 0
Drift error (maybe fixed) : 0
Dropped bytes error (maybe fixed) : 0
Duplicated bytes error (maybe fixed) : 0
Inconsistency in error sectors : 0

Track 06
Filename : /Users/Desktop/Vic Chesnutt - North Star Deserter (2007) [FLAC]/06 - Fodder on Her Wings.flac

CRC32 hash (test run) : 35EC4B77
CRC32 hash : 35EC4B77
CRC32 hash (skip zero) : A530D6DF
AccurateRip signature : 3014156D
->Accurately ripped! (confidence 15)
Statistics
Read error : 0
Skipped (treated as error) : 0
Edge jitter error (maybe fixed) : 0
Atom jitter error (maybe fixed) : 0
Drift error (maybe fixed) : 0
Dropped bytes error (maybe fixed) : 0
Duplicated bytes error (maybe fixed) : 0
Inconsistency in error sectors : 0

Track 07
Filename : /Users/Desktop/Vic Chesnutt - North Star Deserter (2007) [FLAC]/07 - Splendid.flac

CRC32 hash (test run) : 50A2B099
CRC32 hash : 50A2B099
CRC32 hash (skip zero) : 87821CBE
AccurateRip signature : 0C6F0AE8
->Accurately ripped! (confidence 15)
Statistics
Read error : 0
Skipped (treated as error) : 0
Edge jitter error (maybe fixed) : 0
Atom jitter error (maybe fixed) : 0
Drift error (maybe fixed) : 0
Dropped bytes error (maybe fixed) : 0
Duplicated bytes error (maybe fixed) : 0
Inconsistency in error sectors : 0

Track 08
Filename : /Users/Desktop/Vic Chesnutt - North Star Deserter (2007) [FLAC]/08 - Rustic City Fathers.flac

CRC32 hash (test run) : 238C73CE
CRC32 hash : 238C73CE
CRC32 hash (skip zero) : 5D53B03B
AccurateRip signature : 76A85835
->Accurately ripped! (confidence 15)
Statistics
Read error : 0
Skipped (treated as error) : 0
Edge jitter error (maybe fixed) : 0
Atom jitter error (maybe fixed) : 0
Drift error (maybe fixed) : 0
Dropped bytes error (maybe fixed) : 0
Duplicated bytes error (maybe fixed) : 0
Inconsistency in error sectors : 0

Track 09
Filename : /Users/Desktop/Vic Chesnutt - North Star Deserter (2007) [FLAC]/09 - Over.flac

CRC32 hash (test run) : BE1C232C
CRC32 hash : BE1C232C
CRC32 hash (skip zero) : CB2EC1D3
AccurateRip signature : F561560D
->Accurately ripped! (confidence 15)
Statistics
Read error : 0
Skipped (treated as error) : 0
Edge jitter error (maybe fixed) : 0
Atom jitter error (maybe fixed) : 0
Drift error (maybe fixed) : 0
Dropped bytes error (maybe fixed) : 0
Duplicated bytes error (maybe fixed) : 0
Inconsistency in error sectors : 0

Track 10
Filename : /Users/Desktop/Vic Chesnutt - North Star Deserter (2007) [FLAC]/10 - Debriefing.flac

CRC32 hash (test run) : CEBCE7AF
CRC32 hash : CEBCE7AF
CRC32 hash (skip zero) : AAF5DA86
AccurateRip signature : 5F13F9AC
->Accurately ripped! (confidence 14)
Statistics
Read error : 0
Skipped (treated as error) : 0
Edge jitter error (maybe fixed) : 0
Atom jitter error (maybe fixed) : 0
Drift error (maybe fixed) : 0
Dropped bytes error (maybe fixed) : 0
Duplicated bytes error (maybe fixed) : 0
Inconsistency in error sectors : 0

Track 11
Filename : /Users/Desktop/Vic Chesnutt - North Star Deserter (2007) [FLAC]/11 - Marathon.flac

CRC32 hash (test run) : BE6FCA67
CRC32 hash : BE6FCA67
CRC32 hash (skip zero) : 96ADAEF8
AccurateRip signature : EA9088AF
->Accurately ripped! (confidence 13)
Statistics
Read error : 0
Skipped (treated as error) : 0
Edge jitter error (maybe fixed) : 0
Atom jitter error (maybe fixed) : 0
Drift error (maybe fixed) : 0
Dropped bytes error (maybe fixed) : 0
Duplicated bytes error (maybe fixed) : 0
Inconsistency in error sectors : 0

Track 12
Filename : /Users/Desktop/Vic Chesnutt - North Star Deserter (2007) [FLAC]/12 - Rattle.flac

CRC32 hash (test run) : 80BEBC34
CRC32 hash : 80BEBC34
CRC32 hash (skip zero) : 455C5AE1
AccurateRip signature : 8005F9A0
->Accurately ripped! (confidence 13)
Statistics
Read error : 0
Skipped (treated as error) : 0
Edge jitter error (maybe fixed) : 0
Atom jitter error (maybe fixed) : 0
Drift error (maybe fixed) : 0
Dropped bytes error (maybe fixed) : 0
Duplicated bytes error (maybe fixed) : 0
Inconsistency in error sectors : 0

No errors occurred

End of status report





ADVERTISING » Download fast « ADVERTISING
Posted By: AudioMusic Date: 21 Feb 2022 19:36:10
Thanks again!
Posted By: redpop350 Date: 21 Feb 2022 22:03:02
Thanks very much for this one, and the others you put up earlier!

I had heard of Chesnutt, but didn't know who he was. This is addicting music; I think of him as Woody Guthrie crossed with Alice In Chains in much of what I've heard.
Posted By: namrats417 Date: 22 Feb 2022 07:13:35
almost the same here - I'd heard his stuff through Sweet Relief as a Victoria Williams fan - thanks for furthering my education!
Recent searches:
DONATE AVAXHOME:

Donate please!