Loading...
Done
Home > Music
Vic Chesnutt - At The Cut
Posted By : SteveJobs | Date : 21 Feb 2022 22:51:59 | Comments : 1
Vic Chesnutt

Vic Chesnutt - At The Cut (2009)
XLD Rip | Flac (Tracks) Cue, Log, m3u, md5, st5, ffp | complete Artwork 300 dpi | 298 MB
Alternative Rock | Urban Folk | 2009 | Constellation | CST060-2

At The Cut is a record of overt honesty – it’s raw and uncompromising but never once forceful and it cements Vic Chesnutt as one of the most important and overlooked artists of the last 20 years. It’s endearing, it’s charming and it’s raw to the nth degree – unadulterated brilliance.
BEARDED

At the top of his game here…continues the style shift started on North Star Deserter…
CULTURE CATCH

An affecting and moving set of songs that mostly plays to Chesnutt’s strengths as a musician and lyricist. While its inclusions offer numerous parallels to Chesnutt’s back catalog, rarely have his songs sounded so unflinching.
SPECTRUM CULTURE

As pretty as a Sunday drive along the B-roads of the American south in places, the sunshine never lasts long in Chesnutt’s world. At the Cut sees him in torn, perplexed and wonderfully articulate form.
BBC ONLINE

At the Cut reunites Vic Chesnutt with several of the collaborators who helped make his extraordinary 2007 album, North Star Deserter, and while you can’t force lightning to strike twice in the same place, Chesnutt and this group of gifted musicians have managed to create something similarly powerful and affecting that also has a personality of its own.
ALLMUSIC

One of this year’s best works…profound success.
WASHINGTON POST EXPRESS


Vic Chesnutt - At The Cut

Tracklist

1. Coward
2. When The Bottom Fell Out
3. Chinaberry Tree
4. Chain
5. We Hovered With Short Wings
6. Philip Guston
7. Concord Country Jubilee
8. Flirted With You All My Life
9. It Is What It Is
10. Granny


Personnel
Thierry Amar: contrabass
Vic Chesnutt: guitar/singing
Chad Jones: guitar
Efrim Menuk: guitar/keyboards/singing
Jessica Moss: violin/singing
Nadia Moss: organ/piano/singing
David Payant: drums/keyboard/singing
Guy Picciotto: guitar


Recording
Recorded December 08, mixed April 09, Montreal, QC, just up Van Horne from the Old Hotel in a smartly reworked burglar Alarm monitoring fortress that is the new Hotel2Tango, by sound engineer Howard Bilerman. Additional engineering by Thierry Amar, Efrim Menuck, Radwan Moumneh and Guy Picciotto.
Finalized By Harris Newman at Grey Market Mastering.



XLD Log
X Lossless Decoder version 20100218 (116.4)

XLD extraction logfile from 2022-02-20 16:58:56 +0100

Vic Chesnutt / At The Cut

Used drive : PIONEER DVD-RW DVR-K06A (revision Q631)

Use cdparanoia mode : YES (CDParanoia III 10.2 engine)
Disable audio cache : OK for the drive with cache less than 2750KB
Make use of C2 pointers : NO
Read offset correction : 48
Max retry count : 100

TOC of the extracted CD
Track | Start | Length | Start sector | End sector
---------------------------------------------------------
1 | 00:00:00 | 05:16:13 | 0 | 23712
2 | 05:16:13 | 03:10:38 | 23713 | 38000
3 | 08:26:51 | 04:10:48 | 38001 | 56798
4 | 12:37:24 | 02:59:50 | 56799 | 70273
5 | 15:36:74 | 05:14:45 | 70274 | 93868
6 | 20:51:44 | 03:27:43 | 93869 | 109436
7 | 24:19:12 | 04:32:40 | 109437 | 129876
8 | 28:51:52 | 04:41:54 | 129877 | 151005
9 | 33:33:31 | 06:58:35 | 151006 | 182390
10 | 40:31:66 | 03:25:24 | 182391 | 197789


Track 01
Filename : /Users/Desktop/Vic Chesnutt - At The Cut (2009) [FLAC]/01 - Coward.flac

Pre-gap length : 00:02:00

CRC32 hash (test run) : 13045FA7
CRC32 hash : 13045FA7
CRC32 hash (skip zero) : 57FDCFAE
AccurateRip signature : 32380CAE
->Accurately ripped! (confidence 5)
Statistics
Read error : 0
Skipped (treated as error) : 0
Edge jitter error (maybe fixed) : 0
Atom jitter error (maybe fixed) : 0
Drift error (maybe fixed) : 0
Dropped bytes error (maybe fixed) : 0
Duplicated bytes error (maybe fixed) : 0
Inconsistency in error sectors : 0

Track 02
Filename : /Users/Desktop/Vic Chesnutt - At The Cut (2009) [FLAC]/02 - When the Bottom Fell Out.flac

CRC32 hash (test run) : 03E92C63
CRC32 hash : 03E92C63
CRC32 hash (skip zero) : B1EAA941
AccurateRip signature : E54422DF
->Accurately ripped! (confidence 5)
Statistics
Read error : 0
Skipped (treated as error) : 0
Edge jitter error (maybe fixed) : 0
Atom jitter error (maybe fixed) : 0
Drift error (maybe fixed) : 0
Dropped bytes error (maybe fixed) : 0
Duplicated bytes error (maybe fixed) : 0
Inconsistency in error sectors : 0

Track 03
Filename : /Users/Desktop/Vic Chesnutt - At The Cut (2009) [FLAC]/03 - Chinaberry Tree.flac

CRC32 hash (test run) : 2B73CB97
CRC32 hash : 2B73CB97
CRC32 hash (skip zero) : 563CFCDD
AccurateRip signature : CB4C85DD
->Accurately ripped! (confidence 5)
Statistics
Read error : 0
Skipped (treated as error) : 0
Edge jitter error (maybe fixed) : 0
Atom jitter error (maybe fixed) : 0
Drift error (maybe fixed) : 0
Dropped bytes error (maybe fixed) : 0
Duplicated bytes error (maybe fixed) : 0
Inconsistency in error sectors : 0

Track 04
Filename : /Users/Desktop/Vic Chesnutt - At The Cut (2009) [FLAC]/04 - Chain.flac

CRC32 hash (test run) : D5A008B9
CRC32 hash : D5A008B9
CRC32 hash (skip zero) : 25AE3383
AccurateRip signature : 24DD73B9
->Accurately ripped! (confidence 5)
Statistics
Read error : 0
Skipped (treated as error) : 0
Edge jitter error (maybe fixed) : 0
Atom jitter error (maybe fixed) : 0
Drift error (maybe fixed) : 0
Dropped bytes error (maybe fixed) : 0
Duplicated bytes error (maybe fixed) : 0
Inconsistency in error sectors : 0

Track 05
Filename : /Users/Desktop/Vic Chesnutt - At The Cut (2009) [FLAC]/05 - We Hovered With Short Wings.flac

CRC32 hash (test run) : D8176EC0
CRC32 hash : D8176EC0
CRC32 hash (skip zero) : F02CDBFA
AccurateRip signature : 33E09FC6
->Accurately ripped! (confidence 5)
Statistics
Read error : 0
Skipped (treated as error) : 0
Edge jitter error (maybe fixed) : 0
Atom jitter error (maybe fixed) : 0
Drift error (maybe fixed) : 0
Dropped bytes error (maybe fixed) : 0
Duplicated bytes error (maybe fixed) : 0
Inconsistency in error sectors : 0

Track 06
Filename : /Users/Desktop/Vic Chesnutt - At The Cut (2009) [FLAC]/06 - Philip Guston.flac

CRC32 hash (test run) : F77F48C5
CRC32 hash : F77F48C5
CRC32 hash (skip zero) : 55008940
AccurateRip signature : F04D94EB
->Accurately ripped! (confidence 5)
Statistics
Read error : 0
Skipped (treated as error) : 0
Edge jitter error (maybe fixed) : 0
Atom jitter error (maybe fixed) : 0
Drift error (maybe fixed) : 0
Dropped bytes error (maybe fixed) : 0
Duplicated bytes error (maybe fixed) : 0
Inconsistency in error sectors : 0

Track 07
Filename : /Users/Desktop/Vic Chesnutt - At The Cut (2009) [FLAC]/07 - Concord Country Jubilee.flac

CRC32 hash (test run) : 8C87370C
CRC32 hash : 8C87370C
CRC32 hash (skip zero) : A7E3EBD1
AccurateRip signature : C977983C
->Accurately ripped! (confidence 5)
Statistics
Read error : 0
Skipped (treated as error) : 0
Edge jitter error (maybe fixed) : 0
Atom jitter error (maybe fixed) : 0
Drift error (maybe fixed) : 0
Dropped bytes error (maybe fixed) : 0
Duplicated bytes error (maybe fixed) : 0
Inconsistency in error sectors : 0

Track 08
Filename : /Users/Desktop/Vic Chesnutt - At The Cut (2009) [FLAC]/08 - Flirted With You All My Life.flac

CRC32 hash (test run) : 679334D5
CRC32 hash : 679334D5
CRC32 hash (skip zero) : 87986AF4
AccurateRip signature : 5733A6D5
->Accurately ripped! (confidence 5)
Statistics
Read error : 0
Skipped (treated as error) : 0
Edge jitter error (maybe fixed) : 0
Atom jitter error (maybe fixed) : 0
Drift error (maybe fixed) : 0
Dropped bytes error (maybe fixed) : 0
Duplicated bytes error (maybe fixed) : 0
Inconsistency in error sectors : 0

Track 09
Filename : /Users/Desktop/Vic Chesnutt - At The Cut (2009) [FLAC]/09 - It Is What It Is.flac

CRC32 hash (test run) : 4FE7A259
CRC32 hash : 4FE7A259
CRC32 hash (skip zero) : A9B5A072
AccurateRip signature : 5D18DAE8
->Accurately ripped! (confidence 5)
Statistics
Read error : 0
Skipped (treated as error) : 0
Edge jitter error (maybe fixed) : 0
Atom jitter error (maybe fixed) : 0
Drift error (maybe fixed) : 0
Dropped bytes error (maybe fixed) : 0
Duplicated bytes error (maybe fixed) : 0
Inconsistency in error sectors : 0

Track 10
Filename : /Users/Desktop/Vic Chesnutt - At The Cut (2009) [FLAC]/10 - Granny.flac

CRC32 hash (test run) : 52EC938B
CRC32 hash : 52EC938B
CRC32 hash (skip zero) : 597E14D0
AccurateRip signature : BF2DB2B0
->Accurately ripped! (confidence 5)
Statistics
Read error : 0
Skipped (treated as error) : 0
Edge jitter error (maybe fixed) : 0
Atom jitter error (maybe fixed) : 0
Drift error (maybe fixed) : 0
Dropped bytes error (maybe fixed) : 0
Duplicated bytes error (maybe fixed) : 0
Inconsistency in error sectors : 0

No errors occurred

End of status report





ADVERTISING » Download fast « ADVERTISING
Posted By: lkrushel Date: 22 Feb 2022 00:34:01
Thank you very much!
Recent searches:
DONATE AVAXHOME:

Donate please!