Loading...
Done
Home > Music
VA - Legendary Grooves (1995)
Posted By : MeisterLee | Date : 28 Dec 2021 03:33:34 | Comments : 1

Various - Legendary Grooves (1995)
EAC AccurateRip | FLAC | LOG, no CUE | Scans | 7 Tracks | :0100:16 min
366 MB | Label: Bellaphon | CD Nr. 289-07-206
Soul/Jazz

Seven songs of the dimensions of the jazz radio from 8oer years.

















Various - Legendary Grooves

01. The O'Jays Ship Ahoi 09:36
02. Edwin Starr Get Up, Whirlpool 08:18
03. Manu Dibango Super Koumba 06:36
04. Gill Scott Heron & Brian Jackson The Bottle 05:16
05. Rare Earth Ma 17:13
06. Edwin Starr War 03:21
07. The Undisputed Truth Ball Of Confusion 09:53



log
Exact Audio Copy V0.99 prebeta 5 from 4. May 2009

EAC Auslese-Logdatei vom 27. Dezember 2009, 21:59

Various / Legendary Grooves

Benutztes Laufwerk : TSSTcorpDVD-ROM SH-D162C Adapter: 4 ID: 1




TOC der ausgelesenen CD

Track | Start | Länge | Startsektor | Endsektor
-------------------------------------------------------
1 | 0:00.00 | 9:36.50 | 0 | 43249
2 | 9:36.50 | 8:18.62 | 43250 | 80661
3 | 17:55.37 | 6:36.13 | 80662 | 110374
4 | 24:31.50 | 5:16.00 | 110375 | 134074
5 | 29:47.50 | 17:13.62 | 134075 | 211611
6 | 47:01.37 | 3:21.38 | 211612 | 226724
7 | 50:23.00 | 9:53.20 | 226725 | 271219


Track 1

Sampler - Legendary Grooves [1995]\01. The O'Jays Ship Ahoi - The O'Jays Ship Ahoi.wav

Pausenlänge 0:00:02.00

Spitzenpegel 97.2 %
Test CRC D449C223
Kopie CRC D449C223
Akkurat gelesen (Zuversicht 1) [347FE3B2]
Kopie OK

Track 2

Sampler - Legendary Grooves [1995]\02. Edwin Starr Get Up, Whirlpool - Edwin Starr Get Up, Whirlpool.wav

Pausenlänge 0:00:01.05

Spitzenpegel 97.3 %
Test CRC 2F6808C4
Kopie CRC 2F6808C4
Akkurat gelesen (Zuversicht 1) [D6AAB091]
Kopie OK

Track 3

Sampler - Legendary Grooves [1995]\03. Manu Dibango Super Koumba - Manu Dibango Super Koumba.wav

Pausenlänge 0:00:01.17

Spitzenpegel 98.0 %
Test CRC F3F8CDE0
Kopie CRC F3F8CDE0
Akkurat gelesen (Zuversicht 1) [1411E2AE]
Kopie OK

Track 4

Sampler - Legendary Grooves [1995]\04. Gill Scott Heron & Brian Jackson The Bottle - Gill Scott Heron & Brian Jackson The Bottle.wav

Pausenlänge 0:00:01.15

Spitzenpegel 97.8 %
Test CRC EBE70389
Kopie CRC EBE70389
Akkurat gelesen (Zuversicht 1) [C3290969]
Kopie OK

Track 5

Sampler - Legendary Grooves [1995]\05. Rare Earth Ma - Rare Earth Ma.wav

Pausenlänge 0:00:01.25

Spitzenpegel 98.0 %
Test CRC 1CCE3A30
Kopie CRC 1CCE3A30
Akkurat gelesen (Zuversicht 1) [0914715F]
Kopie OK

Track 6

Sampler - Legendary Grooves [1995]\06. Edwin Starr War - Edwin Starr War.wav

Pausenlänge 0:00:01.22

Spitzenpegel 97.1 %
Test CRC 980C0317
Kopie CRC 980C0317
Akkurat gelesen (Zuversicht 1) [936D5525]
Kopie OK

Track 7

Sampler - Legendary Grooves [1995]\07. The Undisputed Truth Ball Of Confusion - The Undisputed Truth Ball Of Confusion.wav

Pausenlänge 0:00:01.25

Spitzenpegel 98.0 %
Test CRC 2DD927CD
Kopie CRC 8DD848B9
Akkurat gelesen (Zuversicht 1) [CEEEA21D]
Kopie OK


Alle Tracks wurden akkurat gelesen

Keine Fehler aufgetreten

Ende des Statusreports




Rapidshare


http://rapidshare.com/files/326796345/LegGrooves.part1.rar
http://rapidshare.com/files/326799400/LegGrooves.part2.rar
http://rapidshare.com/files/326802478/LegGrooves.part3.rar
http://rapidshare.com/files/326793163/LegGrooves.part4.rar
ADVERTISING » Download fast « ADVERTISING
Posted By: Blue61 Date: 29 Dec 2021 01:18:10
Thank you very much from Spain.
Muchas gracias !!!
DONATE AVAXHOME:

Donate please!