Loading...
Done
Home > Music
VA - Buenos Aires Paris - The Electronic Tango Anthology
Posted By : effect_music | Date : 14 Jan 2022 18:29:45 | Comments : 1

VA - Buenos Aires Paris - The Electronic Tango Anthology
FLAC (tracks + cue + log) / MP3 | lossless / 320 kbps | Music Brokers Arg | 96:45 min | 591 mb / 117 mb
Genre: Lo-Fi, Lounge, Latin, Tango


TRACKLIST

CD1
01. Supertangox - Last Tango in Paris
02. Index - Marfil de Piano (Downtempo Remix)
03. Tanghetto - El Boulevard (The Boulevard)
04. Carlos Libedinsky > Narcotango - Otra Luna
05. G-Spliff - Viejo Abasto
06. Tango Tripping Project - Adiуs Nonino
07. Tangothic - Triunfo
08. Seoan feat. Ekaterina - Under The Moon (Full Moon Mix)
09. Leo Portela - Bandolero
10. Two to Stay - Hipn' Fueye ( Fueye Remix)
11. Yira - Villurca
12. Ronan - Otoсo Porteсo (Dark Piano mix)

EAC LOG
Exact Audio Copy V0.99 prebeta 4 from 23. January 2008

EAC extraction logfile from 4. January 2010, 10:26

Various - Tango / Buenos Aires & Paris - The Electronic Tango Anthology - CD1

Used drive : _NEC DVD_RW ND-4570A Adapter: 1 ID: 1

Read mode : Secure
Utilize accurate stream : Yes
Defeat audio cache : Yes
Make use of C2 pointers : No

Read offset correction : 48
Overread into Lead-In and Lead-Out : No
Fill up missing offset samples with silence : Yes
Delete leading and trailing silent blocks : No
Null samples used in CRC calculations : Yes
Used interface : Installed external ASPI interface
Gap handling : Appended to previous track

Used output format : User Defined Encoder
Selected bitrate : 192 kBit/s
Quality : Low
Add ID3 tag : Yes
Command line compressor : C:\Program Files\E A C Audio\flac1.12.exe
Additional command line options : -V -8 -T "artist=%a" -T "title=%t" -T "album=%g" -T "date=%y" -T "tracknumber=%n" -T "genre=%m" %s
Use compression offset : 0


TOC of the extracted CD

Track | Start | Length | Start sector | End sector
---------------------------------------------------------
1 | 0:00.00 | 3:43.43 | 0 | 16767
2 | 3:43.43 | 3:59.57 | 16768 | 34749
3 | 7:43.25 | 3:53.01 | 34750 | 52225
4 | 11:36.26 | 3:38.68 | 52226 | 68643
5 | 15:15.19 | 3:20.10 | 68644 | 83653
6 | 18:35.29 | 3:48.35 | 83654 | 100788
7 | 22:23.64 | 3:21.20 | 100789 | 115883
8 | 25:45.09 | 3:49.65 | 115884 | 133123
9 | 29:34.74 | 5:12.28 | 133124 | 156551
10 | 34:47.27 | 3:23.66 | 156552 | 171842
11 | 38:11.18 | 4:34.02 | 171843 | 192394
12 | 42:45.20 | 3:01.32 | 192395 | 206001


Track 1

Filename D:\Buenos Aires & Paris - The Electronic Tango Anthology\CD1\01. Supertangox - Last Tango in Paris.wav

Pre-gap length 0:00:02.00

Peak level 99.7 %
Track quality 100.0 %
Copy CRC FF746BEF
Accurately ripped (confidence 7) [FBF4DEC0]
Copy OK

Track 2

Filename D:\Buenos Aires & Paris - The Electronic Tango Anthology\CD1\02. Index - Marfil de Piano (Downtempo Remix).wav

Pre-gap length 0:00:00.28

Peak level 92.6 %
Track quality 99.9 %
Copy CRC D9E6BFAC
Accurately ripped (confidence 7) [681BB954]
Copy OK

Track 3

Filename D:\Buenos Aires & Paris - The Electronic Tango Anthology\CD1\03. Tanghetto - El Boulevard (The Boulevard).wav

Pre-gap length 0:00:00.38

Peak level 93.3 %
Track quality 100.0 %
Copy CRC 7F55D5E3
Accurately ripped (confidence 7) [8E63B954]
Copy OK

Track 4

Filename D:\Buenos Aires & Paris - The Electronic Tango Anthology\CD1\04. Carlos Libedinsky ] Narcotango - Otra Luna.wav

Pre-gap length 0:00:00.46

Peak level 89.1 %
Track quality 100.0 %
Copy CRC D92B8CC8
Accurately ripped (confidence 7) [63F293B2]
Copy OK

Track 5

Filename D:\Buenos Aires & Paris - The Electronic Tango Anthology\CD1\05. G-Spliff - Viejo Abasto.wav

Pre-gap length 0:00:00.29

Peak level 99.7 %
Track quality 100.0 %
Copy CRC 9EB0A59C
Accurately ripped (confidence 7) [5378CB6F]
Copy OK

Track 6

Filename D:\Buenos Aires & Paris - The Electronic Tango Anthology\CD1\06. Tango Tripping Project - Adiуs Nonino.wav

Pre-gap length 0:00:00.53

Peak level 98.0 %
Track quality 99.9 %
Copy CRC C96CE2F2
Accurately ripped (confidence 7) [7EFDA87A]
Copy OK

Track 7

Filename D:\Buenos Aires & Paris - The Electronic Tango Anthology\CD1\07. Tangothic - Triunfo.wav

Pre-gap length 0:00:00.66

Peak level 88.7 %
Track quality 100.0 %
Copy CRC B1C0FCE7
Accurately ripped (confidence 7) [A751E99D]
Copy OK

Track 8

Filename D:\Buenos Aires & Paris - The Electronic Tango Anthology\CD1\08. Seoan feat. Ekaterina - Under The Moon (Full Moon Mix).wav

Pre-gap length 0:00:00.70

Peak level 93.0 %
Track quality 100.0 %
Copy CRC 2CD79F80
Accurately ripped (confidence 7) [781C71F7]
Copy OK

Track 9

Filename D:\Buenos Aires & Paris - The Electronic Tango Anthology\CD1\09. Leo Portela - Bandolero.wav

Pre-gap length 0:00:00.13

Peak level 97.8 %
Track quality 100.0 %
Copy CRC 6C3444ED
Accurately ripped (confidence 7) [D8A8C4E0]
Copy OK

Track 10

Filename D:\Buenos Aires & Paris - The Electronic Tango Anthology\CD1\10. Two to Stay - Hipn' Fueye ( Fueye Remix).wav

Pre-gap length 0:00:00.17

Peak level 99.7 %
Track quality 99.9 %
Copy CRC 1BA55F0B
Accurately ripped (confidence 7) [534000CB]
Copy OK

Track 11

Filename D:\Buenos Aires & Paris - The Electronic Tango Anthology\CD1\11. Yira - Villurca.wav

Pre-gap length 0:00:00.42

Peak level 99.6 %
Track quality 100.0 %
Copy CRC 334DE9C4
Accurately ripped (confidence 7) [CBB99BAC]
Copy OK

Track 12

Filename D:\Buenos Aires & Paris - The Electronic Tango Anthology\CD1\12. Ronan - Otoсo Porteсo (Dark Piano mix).wav

Pre-gap length 0:00:00.10

Peak level 99.7 %
Track quality 100.0 %
Copy CRC 0FC7693E
Accurately ripped (confidence 7) [ED28DFDB]
Copy OK


All tracks accurately ripped

No errors occurred

End of status report


CD2
01. Federico Aubele - Postales
02. Overdub Sessions - Mi Buenos Aires (Over & Over Mix)
03. Tangongo - Diagonal Norte (Vox Mix)
04. Le Griser - Fusion a Distancia
05. San Telmo Lounge - Mc Dougall Tango (Redux)
06. Tangongo - Pebeta de Arrabal
07. Quadra - Libertango (Deep Funky Mix)
08. Celda + Sonja - Buanos Aires en Vivo
09. Overdub Sessions - Zigzagueando
10. Freedom Dub feat. Edmundo - Melancolia Urbana
11. Supertangox - Cancherito (La Boca Downtempo Mix)
12. Tango Crash - Red Love

EAC LOG
Exact Audio Copy V0.99 prebeta 4 from 23. January 2008

EAC extraction logfile from 4. January 2010, 10:55

Various / Buenos Aires & Paris - The Electronic Tango Anthology - CD2

Used drive : _NEC DVD_RW ND-4570A Adapter: 1 ID: 1

Read mode : Secure
Utilize accurate stream : Yes
Defeat audio cache : Yes
Make use of C2 pointers : No

Read offset correction : 48
Overread into Lead-In and Lead-Out : No
Fill up missing offset samples with silence : Yes
Delete leading and trailing silent blocks : No
Null samples used in CRC calculations : Yes
Used interface : Installed external ASPI interface
Gap handling : Appended to previous track

Used output format : User Defined Encoder
Selected bitrate : 192 kBit/s
Quality : Low
Add ID3 tag : Yes
Command line compressor : C:\Program Files\E A C Audio\flac1.12.exe
Additional command line options : -V -8 -T "artist=%a" -T "title=%t" -T "album=%g" -T "date=%y" -T "tracknumber=%n" -T "genre=%m" %s
Use compression offset : 0


TOC of the extracted CD

Track | Start | Length | Start sector | End sector
---------------------------------------------------------
1 | 0:00.00 | 4:04.15 | 0 | 18314
2 | 4:04.15 | 4:19.28 | 18315 | 37767
3 | 8:23.43 | 3:45.34 | 37768 | 54676
4 | 12:09.02 | 3:55.59 | 54677 | 72360
5 | 16:04.61 | 4:34.00 | 72361 | 92910
6 | 20:38.61 | 4:37.49 | 92911 | 113734
7 | 25:16.35 | 3:23.20 | 113735 | 128979
8 | 28:39.55 | 3:24.43 | 128980 | 144322
9 | 32:04.23 | 5:09.61 | 144323 | 167558
10 | 37:14.09 | 3:30.14 | 167559 | 183322
11 | 40:44.23 | 3:26.26 | 183323 | 198798
12 | 44:10.49 | 6:58.64 | 198799 | 230212


Track 1

Filename D:\Buenos Aires & Paris - The Electronic Tango Anthology\CD2\01. Federico Aubele - Postales.wav

Pre-gap length 0:00:02.00

Peak level 99.7 %
Track quality 100.0 %
Copy CRC E57D353B
Accurately ripped (confidence 7) [CDB92FC5]
Copy OK

Track 2

Filename D:\Buenos Aires & Paris - The Electronic Tango Anthology\CD2\02. Overdub Sessions - Mi Buenos Aires (Over & Over Mix).wav

Pre-gap length 0:00:00.76

Peak level 99.7 %
Track quality 100.0 %
Copy CRC A25EF616
Accurately ripped (confidence 7) [57D322EB]
Copy OK

Track 3

Filename D:\Buenos Aires & Paris - The Electronic Tango Anthology\CD2\03. Tangongo - Diagonal Norte (Vox Mix).wav

Pre-gap length 0:00:00.10

Peak level 97.0 %
Track quality 99.9 %
Copy CRC 55F969CB
Accurately ripped (confidence 7) [7E722D8D]
Copy OK

Track 4

Filename D:\Buenos Aires & Paris - The Electronic Tango Anthology\CD2\04. Le Griser - Fusion a Distancia.wav

Pre-gap length 0:00:01.05

Peak level 98.7 %
Track quality 99.9 %
Copy CRC 8F0B78EF
Accurately ripped (confidence 7) [9A8FC5BC]
Copy OK

Track 5

Filename D:\Buenos Aires & Paris - The Electronic Tango Anthology\CD2\05. San Telmo Lounge - Mc Dougall Tango (Redux).wav

Pre-gap length 0:00:00.20

Peak level 93.8 %
Track quality 100.0 %
Copy CRC 25B2050E
Accurately ripped (confidence 7) [89149AF2]
Copy OK

Track 6

Filename D:\Buenos Aires & Paris - The Electronic Tango Anthology\CD2\06. Tangongo - Pebeta de Arrabal.wav

Pre-gap length 0:00:00.41

Peak level 99.7 %
Track quality 100.0 %
Copy CRC 70BEC1C7
Accurately ripped (confidence 7) [D3E28577]
Copy OK

Track 7

Filename D:\Buenos Aires & Paris - The Electronic Tango Anthology\CD2\07. Quadra - Libertango (Deep Funky Mix).wav

Pre-gap length 0:00:01.36

Peak level 86.9 %
Track quality 100.0 %
Copy CRC 92F213E5
Accurately ripped (confidence 7) [B92DB455]
Copy OK

Track 8

Filename D:\Buenos Aires & Paris - The Electronic Tango Anthology\CD2\08. Celda + Sonja - Buanos Aires en Vivo.wav

Pre-gap length 0:00:00.32

Peak level 91.2 %
Track quality 100.0 %
Copy CRC 9A0DC1C6
Accurately ripped (confidence 7) [28CD3B9D]
Copy OK

Track 9

Filename D:\Buenos Aires & Paris - The Electronic Tango Anthology\CD2\09. Overdub Sessions - Zigzagueando.wav

Peak level 99.7 %
Track quality 99.9 %
Copy CRC 187BAC9D
Accurately ripped (confidence 7) [BC1D47AC]
Copy OK

Track 10

Filename D:\Buenos Aires & Paris - The Electronic Tango Anthology\CD2\10. Freedom Dub feat. Edmundo - Melancolia Urbana.wav

Pre-gap length 0:00:00.94

Peak level 98.3 %
Track quality 99.9 %
Copy CRC C04EA8DC
Accurately ripped (confidence 7) [BBDD875A]
Copy OK

Track 11

Filename D:\Buenos Aires & Paris - The Electronic Tango Anthology\CD2\11. Supertangox - Cancherito (La Boca Downtempo Mix).wav

Pre-gap length 0:00:00.25

Peak level 94.1 %
Track quality 100.0 %
Copy CRC FF2CCF59
Accurately ripped (confidence 7) [8284A6BF]
Copy OK

Track 12

Filename D:\Buenos Aires & Paris - The Electronic Tango Anthology\CD2\12. Tango Crash - Red Love.wav

Pre-gap length 0:00:00.88

Peak level 99.7 %
Track quality 100.0 %
Copy CRC EBA1FECD
Accurately ripped (confidence 7) [95DAB4C2]
Copy OK


All tracks accurately ripped

No errors occurred

End of status report


FLAC

Hotfile.com
part1
part2
part3
part4
part5
part6

Rapidshare.com
part1
part2
part3
part4
part5
part6


MP3

Hotfile.com
part1
part2

Rapidshare.com
part1
part2


SCANS

Hotfile.com

Rapidshare.com
ADVERTISING » Download fast « ADVERTISING
Posted By: Blue61 Date: 15 Jan 2022 03:52:17
Thank you very much from Spain.
Muchas gracias !!!
DONATE AVAXHOME:

Donate please!