Loading...
Done
Home > Music
Snoop Dogg - Da Game Is To Be Sold, Not To Be Told (1998)
Posted By : MeisterLee | Date : 03 Feb 2022 00:55:13 | Comments : 1

Snoop Dogg - Da Game Is To Be Sold, Not To Be Told (1998)
EAC AccurateRip | FLAC | LOG, no CUE | Scans | 21 Tracks | 01:19:32 min
526 MB | Label: No Limit Records | CD Nr. 7243-8-46433-2-4
Rap

As the Death Row ship was sinking, Snoop Dogg bailed, heading over to the new bastion of street cred, No Limit Records. Master P had worked his way to the top of the charts by giving the people what they wanted — straight-up gangsta, with no frills, creativity, or substance. It was all a little rawer (actually, just cheaper) than Death Row's productions, but there was no denying that they knew what sold, and it seemed as if Snoop was making No Limit legitimate in the eyes of the mainstream world. Master P is a master marketer, and he knows how to reshape everyone on his roster into good No Limit soldiers. And that's precisely what Snoop Dogg is on Da Game Is to Be Sold, Not to Be Told, his third album proper and first for No Limit. There are a few concessions to G-funk scattered throughout the record, but by and large, Beats by the Pound and P give Snoop a set of standard No Limit backing tracks and have him do the No Limit dance — record a long-winded, monotonous album, filled with "interpolations" of '80s soul and rap songs, and loaded with No Limit cameos. But there's one crucial difference: unlike most of Master P's grunts, Snoop has style, miles and miles of style. His loose, languid delivery is positively enthralling, which makes it all the more frustrating when No Limit hacks interrupt the flow. That happens on almost all of the tracks — only a handful are Snoop alone, and those illustrate that he can, on occasion, turn bland music into something interesting. Still, they can't excuse the banality of Da Game Is to Be Sold, Not to Be Told. Signing to No Limit might have preserved Snoop Dogg's street cred, but it ruined his creativity.












Snoop Dogg - Da Game Is To Be Sold, Not To Be Told

01. Snoop World (feat. Master P) 05:19
02. I Can't Take The Heat (feat. Mia X, O'Dell & Anita Thomas) 04:10
03. Woof! (feat. Mystikal & Fiend) 04:21
04. Gin & Juice II 03:36
05. Show Me love (feat. Charlie Wilson) 03:52
06. Hustle & Ball 03:26
07. Don't Let Go 03:47
08. Tru Tank Dogs (feat. Mystikal) 03:55
09. Whatcha Gon Do? (feat. Master P) 02:36
10. Still A G Thang 04:20
11. 20 Dollars To My Name (feat. Fiend, Soulja Slim & Silkk The Shocker) 04:08
12. D.O.G.'s Get Lonely 2 (feat. Jon B.) 03:16
13. Ain't Nut'in Personal (feat. C-Murder, Silkk The Shocker & Crooked Eye) 03:37
14. DP Gangsta (feat. C-Murder & Eddie Griffin) 04:53
15. Game Of Life (feat. Steady Mobb'n) 03:52
16. See Ya When I Get There (feat. C-Murder & Mystikal) 03:19
17. Pay For P... (feat. Big Pimp'n) 01:43
18. Picture This 02:30
19. Doggz Gonna Get Ya (feat. Mac) 04:59
20. Hoes, Money & Clout (feat. Daz) 03:21
21. Get Bout It & Rowdy (feat. Master P) 04:22







log
Exact Audio Copy V0.99 prebeta 5 from 4. May 2009

EAC Auslese-Logdatei vom 2. Februar 2010, 22:40

Snoop Dogg / Da Game Is To Be Sold, Not To Be Told

Benutztes Laufwerk : TSSTcorpDVD-ROM SH-D162C Adapter: 4 ID: 1

Lesemodus : Burst

Leseoffset Korrektur : 6
Überlesen in das Lead-In und Lead-Out : Nein
Fülle fehlende Offsetsample mit Stille auf : Ja
Lösche führende und nachfolgende stille Blöcke : Nein
Null Samples gehen in CRC Berechnungen ein : Nein
Benutzte Schnittstelle : Natürliche Win32 Schnittstelle für Win NT/2000/XP
Pausenbehandlung : Hinter dem vorigen Track angehängt

Benutztes Ausgabeformat : Benutzerdefinierter Komprimierer
Gewählte Bitrate : 768 kBit/s
Qualität : Hoch
Füge ID3 Tag hinzu : Nein
Kommandozeilen Komprimierer : C:\Programme\Exact Audio Copy\FLAC\FLAC.EXE
Zusätzliche Kommandozeilenoptionen : -7 -V -T "ARTIST=%a" -T "TITLE=%t" -T "ALBUM=%g" -T "DATE=%y" -T "TRACKNUMBER=%n" -T "GENRE=%m" -T "COMMENT=%e" %s -o %d


TOC der ausgelesenen CD

Track | Start | Länge | Startsektor | Endsektor
-------------------------------------------------------
1 | 0:00.00 | 5:19.62 | 0 | 23986
2 | 5:19.62 | 4:10.25 | 23987 | 42761
3 | 9:30.12 | 4:21.65 | 42762 | 62401
4 | 13:52.02 | 3:36.40 | 62402 | 78641
5 | 17:28.42 | 3:52.68 | 78642 | 96109
6 | 21:21.35 | 3:26.62 | 96110 | 111621
7 | 24:48.22 | 3:47.30 | 111622 | 128676
8 | 28:35.52 | 3:55.05 | 128677 | 146306
9 | 32:30.57 | 2:36.55 | 146307 | 158061
10 | 35:07.37 | 4:20.10 | 158062 | 177571
11 | 39:27.47 | 4:08.25 | 177572 | 196196
12 | 43:35.72 | 3:16.15 | 196197 | 210911
13 | 46:52.12 | 3:37.08 | 210912 | 227194
14 | 50:29.20 | 4:53.17 | 227195 | 249186
15 | 55:22.37 | 3:52.25 | 249187 | 266611
16 | 59:14.62 | 3:19.68 | 266612 | 281604
17 | 62:34.55 | 1:43.37 | 281605 | 289366
18 | 64:18.17 | 2:30.73 | 289367 | 300689
19 | 66:49.15 | 4:59.12 | 300690 | 323126
20 | 71:48.27 | 3:21.48 | 323127 | 338249
21 | 75:10.00 | 4:22.42 | 338250 | 357941


Track 1

Dateiname D:\Flacs\Snoop Dogg - Da Game Is To Be Sold, Not To Be Told [1998]\01. Snoop World (feat. Master P).wav

Pausenlänge 0:00:02.00

Spitzenpegel 100.0 %
Test CRC 548762AA
Kopie CRC 548762AA
Akkurat gelesen (Zuversicht 18) [311EE7EA]
Kopie OK

Track 2

Dateiname D:\Flacs\Snoop Dogg - Da Game Is To Be Sold, Not To Be Told [1998]\02. I Can't Take The Heat (feat. Mia X, O'Dell & Anita Thomas).wav

Spitzenpegel 100.0 %
Test CRC F4925408
Kopie CRC F4925408
Akkurat gelesen (Zuversicht 17) [5AFD125F]
Kopie OK

Track 3

Dateiname D:\Flacs\Snoop Dogg - Da Game Is To Be Sold, Not To Be Told [1998]\03. Woof! (feat. Mystikal & Fiend).wav

Spitzenpegel 100.0 %
Test CRC E4A1E1CC
Kopie CRC E4A1E1CC
Akkurat gelesen (Zuversicht 18) [FC94A6B9]
Kopie OK

Track 4

Dateiname D:\Flacs\Snoop Dogg - Da Game Is To Be Sold, Not To Be Told [1998]\04. Gin & Juice II.wav

Timing Problem 0:03:20

Spitzenpegel 100.0 %
Test CRC 9AF40F3D
Kopie CRC 9AF40F3D
Akkurat gelesen (Zuversicht 17) [1404E850]
Kopie beendet

Track 5

Dateiname D:\Flacs\Snoop Dogg - Da Game Is To Be Sold, Not To Be Told [1998]\05. Show Me love (feat. Charlie Wilson).wav

Spitzenpegel 100.0 %
Test CRC CD46B046
Kopie CRC CD46B046
Akkurat gelesen (Zuversicht 18) [8E794D7B]
Kopie OK

Track 6

Dateiname D:\Flacs\Snoop Dogg - Da Game Is To Be Sold, Not To Be Told [1998]\06. Hustle & Ball.wav

Spitzenpegel 100.0 %
Test CRC D343C215
Kopie CRC D343C215
Akkurat gelesen (Zuversicht 17) [A26632E7]
Kopie OK

Track 7

Dateiname D:\Flacs\Snoop Dogg - Da Game Is To Be Sold, Not To Be Told [1998]\07. Don't Let Go.wav

Spitzenpegel 100.0 %
Test CRC F4F7D18E
Kopie CRC F4F7D18E
Akkurat gelesen (Zuversicht 17) [BA1C6152]
Kopie OK

Track 8

Dateiname D:\Flacs\Snoop Dogg - Da Game Is To Be Sold, Not To Be Told [1998]\08. Tru Tank Dogs (feat. Mystikal).wav

Timing Problem 0:00:21

Spitzenpegel 100.0 %
Test CRC 7CBF1469
Kopie CRC 7CBF1469
Akkurat gelesen (Zuversicht 18) [A7A906DB]
Kopie beendet

Track 9

Dateiname D:\Flacs\Snoop Dogg - Da Game Is To Be Sold, Not To Be Told [1998]\09. Whatcha Gon Do (feat. Master P).wav

Timing Problem 0:01:04

Spitzenpegel 100.0 %
Test CRC 95F2ECF5
Kopie CRC 95F2ECF5
Akkurat gelesen (Zuversicht 17) [5665879E]
Kopie beendet

Track 10

Dateiname D:\Flacs\Snoop Dogg - Da Game Is To Be Sold, Not To Be Told [1998]\10. Still A G Thang.wav

Spitzenpegel 100.0 %
Test CRC 9725A4B0
Kopie CRC 9725A4B0
Akkurat gelesen (Zuversicht 18) [7CBBC57A]
Kopie OK

Track 11

Dateiname D:\Flacs\Snoop Dogg - Da Game Is To Be Sold, Not To Be Told [1998]\11. 20 Dollars To My Name (feat. Fiend, Soulja Slim & Silkk The Shocker).wav

Spitzenpegel 100.0 %
Test CRC BE0BAFAB
Kopie CRC BE0BAFAB
Akkurat gelesen (Zuversicht 17) [0725EFAC]
Kopie OK

Track 12

Dateiname D:\Flacs\Snoop Dogg - Da Game Is To Be Sold, Not To Be Told [1998]\12. D.O.G.'s Get Lonely 2 (feat. Jon B.).wav

Spitzenpegel 99.5 %
Test CRC CCB54D3D
Kopie CRC CCB54D3D
Akkurat gelesen (Zuversicht 17) [F94B7442]
Kopie OK

Track 13

Dateiname D:\Flacs\Snoop Dogg - Da Game Is To Be Sold, Not To Be Told [1998]\13. Ain't Nut'in Personal (feat. C-Murder, Silkk The Shocker & Crooked Eye).wav

Timing Problem 0:01:32

Spitzenpegel 100.0 %
Test CRC EFC1160C
Kopie CRC EFC1160C
Akkurat gelesen (Zuversicht 15) [2BBE390E]
Kopie beendet

Track 14

Dateiname D:\Flacs\Snoop Dogg - Da Game Is To Be Sold, Not To Be Told [1998]\14. DP Gangsta (feat. C-Murder & Eddie Griffin).wav

Timing Problem 0:03:07

Spitzenpegel 100.0 %
Test CRC 026B9ABF
Kopie CRC 026B9ABF
Akkurat gelesen (Zuversicht 18) [F2696667]
Kopie beendet

Track 15

Dateiname D:\Flacs\Snoop Dogg - Da Game Is To Be Sold, Not To Be Told [1998]\15. Game Of Life (feat. Steady Mobb'n).wav

Spitzenpegel 100.0 %
Test CRC E65B14B6
Kopie CRC E65B14B6
Akkurat gelesen (Zuversicht 18) [17378904]
Kopie OK

Track 16

Dateiname D:\Flacs\Snoop Dogg - Da Game Is To Be Sold, Not To Be Told [1998]\16. See Ya When I Get There (feat. C-Murder & Mystikal).wav

Spitzenpegel 100.0 %
Test CRC A42CAE93
Kopie CRC A42CAE93
Akkurat gelesen (Zuversicht 17) [1E425358]
Kopie OK

Track 17

Dateiname D:\Flacs\Snoop Dogg - Da Game Is To Be Sold, Not To Be Told [1998]\17. Pay For P... (feat. Big Pimp'n).wav

Spitzenpegel 100.0 %
Test CRC 82FDD507
Kopie CRC 82FDD507
Akkurat gelesen (Zuversicht 18) [9241E587]
Kopie OK

Track 18

Dateiname D:\Flacs\Snoop Dogg - Da Game Is To Be Sold, Not To Be Told [1998]\18. Picture This.wav

Spitzenpegel 100.0 %
Test CRC 90A7F6AF
Kopie CRC 90A7F6AF
Akkurat gelesen (Zuversicht 18) [DD1C6A38]
Kopie OK

Track 19

Dateiname D:\Flacs\Snoop Dogg - Da Game Is To Be Sold, Not To Be Told [1998]\19. Doggz Gonna Get Ya (feat. Mac).wav

Spitzenpegel 100.0 %
Test CRC 4FB5ADA2
Kopie CRC 4FB5ADA2
Akkurat gelesen (Zuversicht 17) [8AD84BB8]
Kopie OK

Track 20

Dateiname D:\Flacs\Snoop Dogg - Da Game Is To Be Sold, Not To Be Told [1998]\20. Hoes, Money & Clout (feat. Daz).wav

Spitzenpegel 100.0 %
Test CRC B9394140
Kopie CRC B9394140
Akkurat gelesen (Zuversicht 17) [AE56C758]
Kopie OK

Track 21

Dateiname D:\Flacs\Snoop Dogg - Da Game Is To Be Sold, Not To Be Told [1998]\21. Get Bout It & Rowdy (feat. Master P).wav

Spitzenpegel 100.0 %
Test CRC F4752EBC
Kopie CRC F4752EBC
Akkurat gelesen (Zuversicht 17) [76655327]
Kopie OK


Alle Tracks wurden akkurat gelesen

Keine Fehler aufgetreten

Ende des Statusreports




Rapidshare

http://rapidshare.com/files/345049451/Snoop_Dogg_-_Da_Game_Is_To_Be_Sold__Not_To_Be_Told__1998_.part1.rar
http://rapidshare.com/files/345053510/Snoop_Dogg_-_Da_Game_Is_To_Be_Sold__Not_To_Be_Told__1998_.part2.rar
http://rapidshare.com/files/345057192/Snoop_Dogg_-_Da_Game_Is_To_Be_Sold__Not_To_Be_Told__1998_.part3.rar
http://rapidshare.com/files/345060883/Snoop_Dogg_-_Da_Game_Is_To_Be_Sold__Not_To_Be_Told__1998_.part4.rar
http://rapidshare.com/files/345064490/Snoop_Dogg_-_Da_Game_Is_To_Be_Sold__Not_To_Be_Told__1998_.part5.rar
http://rapidshare.com/files/345045334/Snoop_Dogg_-_Da_Game_Is_To_Be_Sold__Not_To_Be_Told__1998_.part6.rar
ADVERTISING » Download fast « ADVERTISING
Posted By: hazard8 Date: 03 Feb 2022 17:02:33
APE sound MUCH better. PLEASE, post in Ape in the future. Thank you.
Recent searches:
DONATE AVAXHOME:

Donate please!