Loading...
Done
Home > Music
Posted By : Pancho Villa | Date : 17 Sep 2021 15:10:36 | Comments : 4 |

Simpson, Christopher - The seasons, the monthes & other divisions of time ~ Watillon
Classical | Eac, Ape+cue, log | covers+booklet | 1 Cd, 398 Mb
16 avril 2007 | Alpha | Filesonic + Fileserve

Christopher Simpson: The Seasons, The Monthes and Other Divisions of Time -- I is the lengthy title for a generally excellent disc devoted to Simpson by a viol consort led by Sophie Watillon for the Alpha Productions label. It includes two of Simpson's "seasons," "The Winter" and "The Spring," the first six "monthes" of the year, and three sets of divisions. Presumably Christopher Simpson: The Seasons, The Monthes and Other Divisions of Time -- II will complete Watillon's surveys of Simpson's seasons and "monthes," in addition to other things, but this is fine just by itself. The playing of Sophie Watillon and her group is sensitive, well-paced, and flexible in a manner that does justice to the somewhat jazzy milieu Simpson alludes to in his theoretical works such as "The Division Violist." Watillon's approach to this music is coming more from an artistic motivation than from a scholarly bent, and the portion of the liner notes written by her contains an original poem, as opposed to the sort of serious justification, and the laying of musicological groundwork, that we usually see.
Nevertheless, once you listen, you will not miss that. While all of the music on Christopher Simpson: The Seasons, The Monthes and Other Divisions of Time -- I is top drawer, it is hard not to be especially drawn to the "Divisions," pieces originally intended for teaching rather than listening. Their minimalistic-sounding repeated patterns and rapid passagework are all the more attractive to modern ears due to the similarity it bears to pop music, certainly not what Simpson had in mind in 1659. If the composer has any latent misgivings about this misappropriation of his work, he should get in line behind Johann Pachelbel, who on the same score would have a lot to complain about. The rest should just simply sit back and enjoy, an activity that is very easy to do when Christopher Simpson: The Seasons, The Monthes and Other Divisions of Time -- I is in the player. This disc is urgently recommended to types who want to have music for relaxation, but prefer it not to be too familiar or overly comfortable. ~ Uncle Dave Lewis , Rovi All Music Guide

Simpson figure parmi les musiciens les plus en vue de l'ère élisabéthaine, âge d'or de la musique pour consort de violes. Ses pièces sont écrites pour une formation inhabituelle : un dessus de viole, deux basses de viole et un continuo (théorbe et orgue ou clavecin). Une musique à découvrir absolument !


Sophie Watillon, dessus & basse de viole
Friederike Heumann, Brian Franklin, basses de viole
Matthias Spaeter, théorbe & archiluth
Luca Guglielmi, orgue & clavecin à cordes en boyau

Enregistré en octobre 2004 à Namur (Belgique)
à l'église de Franc-Warêt


Pistes:

1. The Seasons, The Winter: I. Fancy (Dessus de viole, 2 basses de viole, théorbe, orgue & clavecin) 5:54
2. The Seasons, The Winter: II. Aire (Dessus de viole, 2 basses de viole, théorbe, orgue & clavecin) 3:16
3. The Seasons, The Winter: III. Galliard (Dessus de viole, 2 basses de viole, théorbe, orgue & clavecin) 4:50
4. Divisions In A (3 basses de viole) 3:19
5. The Monthes: January (Dessus de viole, 2 basses de viole, théorbe, archiluth & orgue) 5:19
6. The Monthes: February (Dessus de viole, 2 basses de viole, théorbe, archiluth & orgue) 4:17
7. The Monthes: March (Dessus de viole, 2 basses de viole, théorbe, archiluth & orgue) 4:28
8. The Division-Violist: Prélude (Basse de viole seule) 2:13
9. The Division-Violist: Minuritiones septimae (Divisions In E) (Basse de viole & orgue) 7:37
10. The Seasons, The Spring: I. Fancy (Dessus de viole, 2 basses de viole, théorbe, archiluth, orgue & clavecin) 6:22
11. The Seasons, The Spring: II. Ayre (Dessus de viole, 2 basses de viole, théorbe, archiluth, orgue & clavecin) 4:55
12. The Seasons, The Spring: III. Galliard (Dessus de viole, 2 basses de viole, théorbe, archiluth, orgue & clavecin) 5:36
13. Divisions In G (2 basses de viole, théorbe & clavecin) 5:51
14. The Monthes: April (Dessus de viole, 2 basses de viole, théorbe, archiluth & orgue) 4:00
15. The Monthes: May (Dessus de viole, 2 basses de viole, théorbe, archiluth & orgue) 4:33
16. The Monthes: June (Dessus de viole, 2 basses de viole, théorbe, archiluth & orgue) 4:25
17. Ier Livre: Sujet... "à divertir"... (Basse de viole seule) 1:01

~ 1:17:56

EAC LOG
Exact Audio Copy V0.99 prebeta 4 from 23. January 2008

EAC extraction logfile from 17. September 2010, 11:35

Simpson, Christopher / The seasons, the monthes & other divisions of time - S Watillon (viole)

Used drive : HL-DT-STDVDRAM GSA-H42L Adapter: 2 ID: 0

Read mode : Secure
Utilize accurate stream : Yes
Defeat audio cache : No
Make use of C2 pointers : Yes

Read offset correction : 667
Overread into Lead-In and Lead-Out : No
Fill up missing offset samples with silence : Yes
Delete leading and trailing silent blocks : No
Null samples used in CRC calculations : No
Used interface : Native Win32 interface for Win NT & 2000

Used output format : Internal WAV Routines
Sample format : 44.100 Hz; 16 Bit; Stereo


TOC of the extracted CD

Track | Start | Length | Start sector | End sector
---------------------------------------------------------
1 | 0:00.00 | 5:54.48 | 0 | 26597
2 | 5:54.48 | 3:16.72 | 26598 | 41369
3 | 9:11.45 | 4:50.31 | 41370 | 63150
4 | 14:02.01 | 3:19.43 | 63151 | 78118
5 | 17:21.44 | 5:19.33 | 78119 | 102076
6 | 22:41.02 | 4:17.21 | 102077 | 121372
7 | 26:58.23 | 4:28.39 | 121373 | 141511
8 | 31:26.62 | 2:13.63 | 141512 | 151549
9 | 33:40.50 | 7:37.18 | 151550 | 185842
10 | 41:17.68 | 6:22.63 | 185843 | 214555
11 | 47:40.56 | 4:55.73 | 214556 | 236753
12 | 52:36.54 | 5:36.16 | 236754 | 261969
13 | 58:12.70 | 5:51.59 | 261970 | 288353
14 | 64:04.54 | 4:00.21 | 288354 | 306374
15 | 68:05.00 | 4:33.23 | 306375 | 326872
16 | 72:38.23 | 4:25.15 | 326873 | 346762
17 | 77:03.38 | 1:01.08 | 346763 | 351345


Range status and errors

Selected range

Filename C:\Documents and Settings\Administrateur\Mes documents\Simpson, Christopher - The seasons, the monthes & other divisions of time - S Watillon (viole)\Simpson, Christopher - The seasons, the monthes & other divisions of time - S Watillon (viole

Peak level 100.0 %
Range quality 99.9 %
Copy CRC C882F3D5
Copy OK

No errors occurred


AccurateRip summary

Track 1 not present in database
Track 2 not present in database
Track 3 not present in database
Track 4 not present in database
Track 5 not present in database
Track 6 not present in database
Track 7 not present in database
Track 8 not present in database
Track 9 not present in database
Track 10 not present in database
Track 11 not present in database
Track 12 not present in database
Track 13 not present in database
Track 14 not present in database
Track 15 not present in database
Track 16 not present in database
Track 17 not present in database

None of the tracks are present in the AccurateRip database

End of status report


Filesonic
Part 1 | Part 2 | Part 3 | Part 4 | Part 5
Fileserve
Part 1 | Part 2 | Part 3 | Part 4 | Part 5

ADVERTISING » High Speed Download « ADVERTISING




Posted By: gsuser Date: 17 Sep 2021 18:25:41
Merci beaucoup pour toutes ces superbes découvertes que tu me fais faire ;)
Posted By: Schize Date: 17 Sep 2021 20:13:29
Muchas gracias por toda esta música casi desconocida.
Posted By: hipalex Date: 17 Sep 2021 20:23:27
many thanks
Posted By: Pizzini Date: 18 Sep 2021 08:49:58
Many, many thanks!
(But filesonic never works, forget it! They only steel your time!)
Recent searches: